Bienvenido a Tecnohackers

Tecnohackers » Cultura y Ocio » Mundo Cine » Joyas del Cine
 » 

Vantage Point [2008][BRRip 1080p][Audio Latino - Inglés][Thriller]



Autor Tema: Vantage Point [2008][BRRip 1080p][Audio Latino - Inglés][Thriller]  (Leído 153 veces)

Desconectado DON PEPE

  • Colaborador
  • ***
  • Mensajes: 770
Vantage Point



Vantage Point | Año: 2008 | BRRip 1080p | MKV | AC3 5.1 | Audios: Español Latino, Inglés | Subtítulos: Español, Inglés | Comprimido: Si (Con 10% Registro de Reparación) | 4 Partes (990 MB) | 3.65 GB

You are not allowed to view links. Register or Login

Título original: Vantage Point
Otros Títulos: En el punto de mira (España) | Puntos de vista/Justo en la mira (Argentina) | Justo en la mira (México/Colombia)
Año: 2008
Duración: 90 min.
País: Estados Unidos
Dirección: Pete Travis
Guion: Barry Levy
Música: Atli Örvarsson
Fotografía: Amir M. Mokri
Reparto: Dennis Quaid, Matthew Fox, William Hurt, Forest Whitaker, Sigourney Weaver, Eduardo Noriega, Saïd Taghmaoui, Edgar Ramirez, Zoe Saldana, Richard T. Jones, Rocío Verdejo, Dolores Heredia, Guillermo Iván, ver 16 más
Productora: Columbia Pictures, Relativity Studios, Original Film, Art In Motion, Kanzaman S.A
Género: Thriller | Terrorismo. Historias cruzadas

El presidente de los Estados Unidos viaja a Salamanca para dar una conferencia. En medio del mitin, alguien intenta atentar contra su vida. La historia está contada a través de los ojos de ocho testigos: ocho versiones distintas sobre un único hecho. ¿Qué ocurrió realmente?

Código: You are not allowed to view links. Register or Login
General
Unique ID                                : 268184552885302235391631601194765626372 (0xC9C277527C7C260A4F237EE4B253AC04)
Complete name                            : Vantage.Point.2008.BRRip.1080p.LATiNO.ENG.AC3.x264.mkv
Format                                   : Matroska
Format version                           : Version 4
File size                                : 3.34 GiB
Duration                                 : 1 h 30 min
Overall bit rate                         : 5 304 kb/s
Movie name                               : Vantage.Point.2008.BRRip.1080p.LATiNO.ENG.AC3.x264
Encoded date                             : UTC 2021-05-09 19:03:49
Writing application                      : mkvmerge v56.1.0 ('My Friend') 64-bit
Writing library                          : libebml v1.4.2 + libmatroska v1.6.4

Video
ID                                       : 1
Format                                   : AVC
Format/Info                              : Advanced Video Codec
Format profile                           : High@L4.1
Format settings                          : CABAC / 4 Ref Frames
Format settings, CABAC                   : Yes
Format settings, Reference frames        : 4 frames
Codec ID                                 : V_MPEG4/ISO/AVC
Duration                                 : 1 h 30 min
Bit rate                                 : 4 012 kb/s
Width                                    : 1 920 pixels
Height                                   : 1 080 pixels
Display aspect ratio                     : 16:9
Frame rate mode                          : Constant
Frame rate                               : 23.976 (24000/1001) FPS
Color space                              : YUV
Chroma subsampling                       : 4:2:0
Bit depth                                : 8 bits
Scan type                                : Progressive
Bits/(Pixel*Frame)                       : 0.081
Stream size                              : 2.52 GiB (76%)
Writing library                          : x264 core 157 r2935 545de2f
Default                                  : Yes
Forced                                   : No
Color range                              : Limited
Color primaries                          : BT.709
Transfer characteristics                 : BT.709
Matrix coefficients                      : BT.709

Audio #1
ID                                       : 2
Format                                   : AC-3
Format/Info                              : Audio Coding 3
Commercial name                          : Dolby Digital
Codec ID                                 : A_AC3
Duration                                 : 1 h 30 min
Bit rate mode                            : Constant
Bit rate                                 : 640 kb/s
Channel(s)                               : 6 channels
Channel layout                           : L R C LFE Ls Rs
Sampling rate                            : 48.0 kHz
Frame rate                               : 31.250 FPS (1536 SPF)
Compression mode                         : Lossy
Stream size                              : 412 MiB (12%)
Language                                 : Spanish
Service kind                             : Complete Main
Default                                  : Yes
Forced                                   : Yes

Audio #2
ID                                       : 3
Format                                   : AC-3
Format/Info                              : Audio Coding 3
Commercial name                          : Dolby Digital
Codec ID                                 : A_AC3
Duration                                 : 1 h 30 min
Bit rate mode                            : Constant
Bit rate                                 : 640 kb/s
Channel(s)                               : 6 channels
Channel layout                           : L R C LFE Ls Rs
Sampling rate                            : 48.0 kHz
Frame rate                               : 31.250 FPS (1536 SPF)
Compression mode                         : Lossy
Stream size                              : 412 MiB (12%)
Language                                 : English
Service kind                             : Complete Main
Default                                  : No
Forced                                   : No

Text #1
ID                                       : 4
Format                                   : UTF-8
Codec ID                                 : S_TEXT/UTF8
Codec ID/Info                            : UTF-8 Plain Text
Duration                                 : 1 h 22 min
Bit rate                                 : 47 b/s
Count of elements                        : 885
Stream size                              : 28.6 KiB (0%)
Language                                 : Spanish
Default                                  : No
Forced                                   : No

Text #2
ID                                       : 5
Format                                   : PGS
Muxing mode                              : zlib
Codec ID                                 : S_HDMV/PGS
Codec ID/Info                            : Picture based subtitle format used on BDs/HD-DVDs
Duration                                 : 1 h 22 min
Bit rate                                 : 30.1 kb/s
Count of elements                        : 1916
Stream size                              : 17.7 MiB (1%)
Language                                 : English
Default                                  : No
Forced                                   : No

You are not allowed to view links. Register or Login You are not allowed to view links. Register or Login You are not allowed to view links. Register or Login

You are not allowed to view links. Register or Login You are not allowed to view links. Register or Login You are not allowed to view links. Register or Login


Descargar desde
UPLOADED - RAPIDGATOR - SEND - UP-4EVER


You are not allowed to view links. Register or Login

Para descomprimir el archivo debes usar el Winrar v6.xx

You are not allowed to view links. Register or Login

Si los enlaces están muertos solo avísame respondiendo en el tema y lo soluciono.

Siempre estoy suscrito a mis aportes.


 


SMF 2.0.11 | SMF © 2015, Simple Machines
Paginas Afiliadas
Twitter - FaceBook - Daraxblog
Designed by Smf Personal