Bienvenido a Tecnohackers

Tecnohackers » Cultura y Ocio » Mundo Cine » Joyas del Cine
 » 

A Lot Like Love [2005][Full HD 1080]



Autor Tema: A Lot Like Love [2005][Full HD 1080]  (Leído 134 veces)

Desconectado campitos

  • Gran Colaborador
  • ****
  • Mensajes: 1789
A Lot Like Love [2005][Full HD 1080]
« en: Marzo 14, 2016, 05:43:35 pm »


Titulo original A Lot Like Love
Ano 2005
Duracion 107 min.
Pais Estados Unidos
Director Nigel Cole
Guion Colin Patrick Lynch
Musica Alex Wurman
Fotografia John de Borman
Reparto Ashton Kutcher, Amanda Peet, Taryn Manning, Ali Larter, Jeremy Sisto, Aimee Garcia, Gabriel Mann, Kathryn Hahn, Moon Bloodgood, Ty Giordano, Melissa Van der Schyff, Molly Cheek, Kal Penn, Robert Peters
Productora Touchstone Pictures
Genero Romance. Comedia | Comedia romantica
Sinopsis Dos jovenes se conocen durante un largo viaje en avion. Oliver (Kutcher), recien salido de la Universidad, tiene planes muy concretos para lograr el exito en los negocios y en el amor. Emily (Peet), en cambio, es un alma audaz, libre y espontanea, que se siente atraida por las situaciones mas extremas. Representan dos formas incompatibles de ver y encarar la vida. Sin embargo, su encuentro les ha dejado huella, algo totalmente inexplicable los mantiene unidos. De hecho, vuelven a verse, ano tras ano, en distintas ciudades.

Código: You are not allowed to view links. Register or Login
General
A Lot Like Love (2005) [FULL 1080p Dual].mkv
Format : Matroska
Format version : Version 4 / Version 2
File size : 2.81 GiB
Duration : 1h 47mn
Overall bit rate : 3 764 Kbps
Movie name : A Lot Like Love (2005) [FULL 1080p Dual]
Encoded date : UTC 2014-02-16 01:55:38
Writing application : mkvmerge v6.0.0 ('Coming Up For Air') built on Jan 20 2013 09:52:00
Writing library : libebml v1.3.0 + libmatroska v1.4.0
Video
ID : 1
Format : AVC
Format/Info : Advanced Video Codec
Format profile : Main@L4.0
Format settings, CABAC : Yes
Format settings, ReFrames : 1 frame
Codec ID : V_MPEG4/ISO/AVC
Bit rate : 2 921 Kbps
Width : 1 920 pixels
Height : 1 080 pixels
Display aspect ratio : 16:9
Frame rate mode : Variable
Original frame rate : 23.976 fps
Color space : YUV
Chroma subsampling : 4:2:0
Bit depth : 8 bits
Scan type : Progressive
Writing library : x264 core
Default : Yes
Forced : No
Color primaries : BT.709
Transfer characteristics : BT.709
Matrix coefficients : BT.709
Audio #1
ID : 2
Format : AC-3
Format/Info : Audio Coding 3
Mode extension : CM (complete main)
Format settings, Endianness : Big
Codec ID : A_AC3
Duration : 1h 47mn
Bit rate mode : Constant
Bit rate : 448 Kbps
Channel count : 6 channels
Channel positions : Front: L C R, Side: L R, LFE
Sampling rate : 48.0 KHz
Bit depth : 16 bits
Compression mode : Lossy
Stream size : 343 MiB (12%)
Title : latin spanish
Language : Spanish
Default : Yes
Forced : No
Audio #2
ID : 3
Format : AC-3
Format/Info : Audio Coding 3
Mode extension : CM (complete main)
Format settings, Endianness : Big
Codec ID : A_AC3
Duration : 1h 47mn
Bit rate mode : Constant
Bit rate : 320 Kbps
Channel count : 6 channels
Channel positions : Front: L C R, Side: L R, LFE
Sampling rate : 44.1 KHz
Bit depth : 16 bits
Compression mode : Lossy
Stream size : 245 MiB (9%)
Language : English
Default : No
Forced : No
Text #1
ID : 4
Format : VobSub
Muxing mode : zlib
Codec ID : S_VOBSUB
Codec ID/Info : The same subtitle format used on DVDs
Language : Spanish
Default : No
Forced : No
Text #2
ID : 5
Format : VobSub
Muxing mode : zlib
Codec ID : S_VOBSUB
Codec ID/Info : The same subtitle format used on DVDs
Language : English
Default : No
Forced : No
Text #3
ID : 6
Format : UTF-8
Codec ID : S_TEXT/UTF8
Codec ID/Info : UTF-8 Plain Text
Default : Yes
Forced : No







Código: You are not allowed to view links. Register or Login
[url]https://www.bigfile.to/file/cvngf3VMxJcg/alolihd.part01.rar[/url]
[url]https://www.bigfile.to/file/RGYpZwpcH4uh/alolihd.part02.rar[/url]
[url]https://www.bigfile.to/file/bqRzj256QhuQ/alolihd.part03.rar[/url]
[url]https://www.bigfile.to/file/25dntTeENkvE/alolihd.part04.rar[/url]
[url]https://www.bigfile.to/file/Wz7XRvTY8mzQ/alolihd.part05.rar[/url]
[url]https://www.bigfile.to/file/F2GeVgkXwb4p/alolihd.part06.rar[/url]
[url]https://www.bigfile.to/file/uBpqmywJcjmj/alolihd.part07.rar[/url]
[url]https://www.bigfile.to/file/RzEKtUx4xCEH/alolihd.part08.rar[/url]
[url]https://www.bigfile.to/file/6UYBGfGHk9MT/alolihd.part09.rar[/url]
[url]https://www.bigfile.to/file/UBhQmyvqCgn2/alolihd.part10.rar[/url]
[url]https://www.bigfile.to/file/6WTecqetMTfP/alolihd.part11.rar[/url]
[url]https://www.bigfile.to/file/htgeuygtcXsn/alolihd.part12.rar[/url]

Tags:
Tags:

 


SMF 2.0.11 | SMF © 2015, Simple Machines
Paginas Afiliadas
Twitter - FaceBook - Daraxblog
Designed by Smf Personal