Bienvenido a Tecnohackers

Tecnohackers » Cultura y Ocio » Mundo Cine » Joyas del Cine
 » 

Narco Cultura [2002][Full HD 1080]



Autor Tema: Narco Cultura [2002][Full HD 1080]  (Leído 98 veces)

Desconectado pomposos

  • Gran Experto
  • *****
  • Mensajes: 4456
Narco Cultura [2002][Full HD 1080]
« en: Mayo 07, 2015, 09:02:21 pm »


Titulo original Narco Cultura
Ano 2012
Duracion 90 min.
Pais Estados Unidos
Director Shaul Schwarz
Fotografia Shaul Shwarz
Reparto Documentary
Productora Coproduccion USA-Mexico
Genero Documental | Drogas. Cine independiente USA
Sinopsis "Narco Cultura" es un largometraje documental sobre la explosiva cultura narco, un fenomeno que borra los limites entre la guerra y el entretenimiento. Para un numero creciente de mexicanos y latinos en America, los narcotraficantes representan los unicos modelos de la fama y el exito, la unica manera de salir del gueto. Esta es la historia no contada detras de la guerra contra las drogas, un ciclo imparable que ha creado una cultura de la adiccion a ambos lados de la frontera - la adiccion a la vanidad de dinero, las drogas y la violencia. Estas son las historias personales de aquellos atrapados en esta guerra, de los musicos que se benefician de la violencia, de la glorificacion del hombre que recoge los organos de la manana siguiente

Código: You are not allowed to view links. Register or Login
General
Format : Matroska
Format version : Version 4 / Version 2
File size : 2.43 GiB
Duration : 1h 42mn
Overall bit rate : 3 404 Kbps
Encoded date : UTC 2014-02-28 18:00:35
Writing application : mkvmerge v6.0.0 ('Coming Up For Air') built on Jan 20 2013 09:52:00
Writing library : libebml v1.3.0 + libmatroska v1.4.0
Video
ID : 1
Format : AVC
Format/Info : Advanced Video Codec
Format profile : High@L4.1
Format settings, CABAC : Yes
Format settings, ReFrames : 2 frames
Format settings, GOP : M=3, N=24
Codec ID : V_MPEG4/ISO/AVC
Duration : 1h 42mn
Bit rate : 2 888 Kbps
Width : 1 920 pixels
Height : 1 080 pixels
Display aspect ratio : 16:9
Frame rate mode : Constant
Frame rate : 23.976 fps
Color space : YUV
Chroma subsampling : 4:2:0
Bit depth : 8 bits
Scan type : Progressive
Bits/(Pixel*Frame) : 0.058
Stream size : 2.06 GiB (85%)
Writing library : x264 core
Default : Yes
Forced : No
Color primaries : BT.709
Transfer characteristics : BT.709
Matrix coefficients : BT.709
Audio
ID : 2
Format : AC-3
Format/Info : Audio Coding 3
Mode extension : CM (complete main)
Format settings, Endianness : Big
Codec ID : A_AC3
Duration : 1h 42mn
Bit rate mode : Constant
Bit rate : 448 Kbps
Channel count : 6 channels
Channel positions : Front: L C R, Side: L R, LFE
Sampling rate : 48.0 KHz
Bit depth : 16 bits
Compression mode : Lossy
Stream size : 328 MiB (13%)
Language : Spanish
Default : Yes
Forced : No
Text #1
ID : 3
Format : VobSub
Muxing mode : zlib
Codec ID : S_VOBSUB
Codec ID/Info : The same subtitle format used on DVDs
Language : Spanish
Default : No
Forced : No
Text #2
ID : 4
Format : VobSub
Muxing mode : zlib
Codec ID : S_VOBSUB
Codec ID/Info : The same subtitle format used on DVDs
Language : English
Default : No
Forced : No
Text #3
ID : 5
Format : UTF-8
Codec ID : S_TEXT/UTF8
Codec ID/Info : UTF-8 Plain Text
Default : Yes
Forced : No









Código: You are not allowed to view links. Register or Login
http://www.uploadable.ch/file/vay9HBaYKe6b/natciltdihd.part01.rar
http://www.uploadable.ch/file/DQH8w895J3eq/natciltdihd.part02.rar
http://www.uploadable.ch/file/KugsNtAwWxPD/natciltdihd.part03.rar
http://www.uploadable.ch/file/JhySy4Jc9Sm9/natciltdihd.part04.rar
http://www.uploadable.ch/file/qm5f4rWpCKzx/natciltdihd.part05.rar
http://www.uploadable.ch/file/HQmevX3JxWHz/natciltdihd.part06.rar
http://www.uploadable.ch/file/e8t42yEDcyus/natciltdihd.part07.rar
http://www.uploadable.ch/file/5hdMMDa7Qe9P/natciltdihd.part08.rar
http://www.uploadable.ch/file/pKHvGaY2Asp6/natciltdihd.part09.rar
http://www.uploadable.ch/file/7mvN9hDdxBj7/natciltdihd.part10.rar

Tags:
Tags:

 


SMF 2.0.11 | SMF © 2015, Simple Machines
Paginas Afiliadas
Twitter - FaceBook - Daraxblog
Designed by Smf Personal