Bienvenido a Tecnohackers

Tecnohackers » Cultura y Ocio » Mundo Cine » Joyas del Cine
 » 

National Treasure 2 [2007][FullHD 1080]



Autor Tema: National Treasure 2 [2007][FullHD 1080]  (Leído 97 veces)

Desconectado pomposos

  • Gran Experto
  • *****
  • Mensajes: 4456
National Treasure 2 [2007][FullHD 1080]
« en: Mayo 04, 2015, 05:50:17 am »

Código: You are not allowed to view links. Register or Login
http://www.imdb.com/title/tt0465234/
Titulo original National Treasure: Book of Secrets (National Treasure 2)
Ano 2007
Duracion 124 min.
Pais Estados Unidos
Director Jon Turteltaub
Guion Cormac Wibberley, Marianne Wibberley (Personajes: Jim Kouf, Oren Aviv, Charles Segars)
Musica Trevor Rabin
Fotografia John Schwartzman
Reparto Nicolas Cage, Jon Voight, Harvey Keitel, Ed Harris, Diane Kruger, Helen Mirren, Justin Bartha, Bruce Greenwood, Alicia Coppola, Joel Gretsch
Productora Walt Disney Pictures / Jerry Bruckheimer Films
Genero Aventuras. Accion | Secuela
Sinopsis El buscador de tesoros Ben Gates (Cage) se ve de nuevo envuelto en una extraordinaria aventura, en la que se combinan periodos desconocidos de la historia y tesoros ocultos. Cuando una pagina del diario de John Wilkes Booth, el asesino de Abraham Lincoln, sale a la luz, el tatarabuelo de Ben se ve implicado como el principal instigador del magnicidio. Decidido a probar la inocencia de su antepasado, Ben y su equipo emprenden un viaje que los lleva a descubrir uno de los tesoros mas buscados del mundo

Código: You are not allowed to view links. Register or Login
Complete name : La Busqueda 2 El Diario Secreto (2007) 1080p Dual.mkv
Format : Matroska
Format version : Version 2
File size : 3.27 GiB
Duration : 2h 4mn
Overall bit rate : 3 757 Kbps
Movie name : National Treasure: Book of Secrets [2007][1080p Dual]
Encoded date : UTC 2013-12-13 17:43:42
Writing application : mkvmerge v5.7.0 ('The Whirlwind') built on Jul 8 2012 20:08:51
Writing library : libebml v1.2.3 + libmatroska v1.3.0
Video
ID : 1
Format : AVC
Format/Info : Advanced Video Codec
Format profile : Main@L4.0
Format settings, CABAC : Yes
Format settings, ReFrames : 4 frames
Muxing mode : Header stripping
Codec ID : V_MPEG4/ISO/AVC
Duration : 2h 4mn
Bit rate : 2 883 Kbps
Width : 1 920 pixels
Height : 1 080 pixels
Display aspect ratio : 16:9
Frame rate mode : Constant
Frame rate : 23.976 fps
Color space : YUV
Chroma subsampling : 4:2:0
Bit depth : 8 bits
Scan type : Progressive
Bits/(Pixel*Frame) : 0.058
Stream size : 2.42 GiB (74%)
Writing library : x264 core 130 r2273 b3065e6
Default : Yes
Forced : No
Color primaries : BT.709
Transfer characteristics : BT.709
Matrix coefficients : BT.709
Audio #1
ID : 2
Format : AC-3
Format/Info : Audio Coding 3
Mode extension : CM (complete main)
Format settings, Endianness : Big
Muxing mode : Header stripping
Codec ID : A_AC3
Duration : 2h 4mn
Bit rate mode : Constant
Bit rate : 448 Kbps
Channel count : 6 channels
Channel positions : Front: L C R, Side: L R, LFE
Sampling rate : 48.0 KHz
Bit depth : 16 bits
Compression mode : Lossy
Stream size : 399 MiB (12%)
Title : Espanol Latino
Default : Yes
Forced : No
Audio #2
ID : 3
Format : AC-3
Format/Info : Audio Coding 3
Mode extension : CM (complete main)
Format settings, Endianness : Big
Muxing mode : Header stripping
Codec ID : A_AC3
Duration : 2h 4mn
Bit rate mode : Constant
Bit rate : 448 Kbps
Channel count : 6 channels
Channel positions : Front: L C R, Side: L R, LFE
Sampling rate : 48.0 KHz
Bit depth : 16 bits
Compression mode : Lossy
Stream size : 399 MiB (12%)
Title : Ingles
Default : No
Forced : No
Text #1
ID : 4
Format : UTF-8
Codec ID : S_TEXT/UTF8
Codec ID/Info : UTF-8 Plain Text
Default : Yes
Forced : No
Text #2
ID : 5
Format : VobSub
Muxing mode : zlib
Codec ID : S_VOBSUB
Codec ID/Info : The same subtitle format used on DVDs
Title : Subtitulos Espanol
Default : No
Forced : No











Código: You are not allowed to view links. Register or Login
http://www.uploadable.ch/file/6KAPT76Yfu9C/lbused2hd.part01.rar
http://www.uploadable.ch/file/TWtHV4PYEDR2/lbused2hd.part02.rar
http://www.uploadable.ch/file/nkZtUQBMJsTR/lbused2hd.part03.rar
http://www.uploadable.ch/file/VbZBVncJJKcV/lbused2hd.part04.rar
http://www.uploadable.ch/file/aMVsTaVuNbvp/lbused2hd.part05.rar
http://www.uploadable.ch/file/dEHdh5JCtn8C/lbused2hd.part06.rar
http://www.uploadable.ch/file/vkVfUnsCgPXU/lbused2hd.part07.rar
http://www.uploadable.ch/file/JQvnerctC6gk/lbused2hd.part08.rar
http://www.uploadable.ch/file/XJr9TYQmSQuA/lbused2hd.part09.rar
http://www.uploadable.ch/file/Jty5xsmp34G7/lbused2hd.part10.rar
http://www.uploadable.ch/file/qCjXcgQhZgNh/lbused2hd.part11.rar
http://www.uploadable.ch/file/havZjAHSUzAa/lbused2hd.part12.rar
http://www.uploadable.ch/file/G2Cj9QKF52TQ/lbused2hd.part13.rar
http://www.uploadable.ch/file/rWDEy2DB74ae/lbused2hd.part14.rar

Tags:
Tags:

 


SMF 2.0.11 | SMF © 2015, Simple Machines
Paginas Afiliadas
Twitter - FaceBook - Daraxblog
Designed by Smf Personal