Bienvenido a Tecnohackers

Tecnohackers » Cultura y Ocio » Mundo Cine » Joyas del Cine
 » 

Life of Pi [2012][FullHD 1080]



Autor Tema: Life of Pi [2012][FullHD 1080]  (Leído 104 veces)

Desconectado pomposos

  • Gran Experto
  • *****
  • Mensajes: 4456
Life of Pi [2012][FullHD 1080]
« en: Junio 21, 2014, 05:23:09 pm »

Código: You are not allowed to view links. Register or Login
http://www.imdb.com/title/tt0454876/
Titulo original Life of Pi
Ano 2012
Duracion 127 min.
Pais Estados Unidos
Director Ang Lee
Guion David Magee (Novela: Yann Martel)
Musica Mychael Danna
Fotografia Claudio Miranda
Reparto Suraj Sharma, Irrfan Khan, Rafe Spall, Tabu, Adril Hussain, Shravanthi Sainath, Ayush Tandon, Vibish Sivakumar, Gerard Depardieu
Productora Fox 2000 Pictures / Haishang Films
Genero Aventuras. Drama | Aventuras marinas. Supervivencia. 3-D. Animales
Sinopsis Tras un naufragio en medio del oceano Pacifico, el joven hindu Pi, hijo de un guarda de zoo que viajaba de la India a Canada, se encuentra en un bote salvavidas con un unico superviviente, un tigre de bengala con quien labrara una emocionante, increible e inesperada relacion.

Código: You are not allowed to view links. Register or Login
Complete name : La Vida De Pi (2012) 1080p Dual.mkv
Format : Matroska
Format version : Version 2
File size : 3.01 GiB
Duration : 2h 6mn
Overall bit rate : 3 398 Kbps
Movie name : Life Of Pi [2012][1080p Dual]
Encoded date : UTC 2013-12-06 22:43:42
Writing application : mkvmerge v5.7.0 ('The Whirlwind') built on Jul 8 2012 20:08:51
Writing library : libebml v1.2.3 + libmatroska v1.3.0
Video
ID : 1
Format : AVC
Format/Info : Advanced Video Codec
Format profile : Main@L4.0
Format settings, CABAC : Yes
Format settings, ReFrames : 4 frames
Muxing mode : Header stripping
Codec ID : V_MPEG4/ISO/AVC
Duration : 2h 6mn
Bit rate : 2 500 Kbps
Width : 1 920 pixels
Height : 1 080 pixels
Display aspect ratio : 16:9
Frame rate mode : Constant
Frame rate : 23.976 fps
Color space : YUV
Chroma subsampling : 4:2:0
Bit depth : 8 bits
Scan type : Progressive
Bits/(Pixel*Frame) : 0.050
Stream size : 2.16 GiB (72%)
Writing library : x264 core 130 r2273 b3065e6
Default : Yes
Forced : No
Color primaries : BT.709
Transfer characteristics : BT.709
Matrix coefficients : BT.709
Audio #1
ID : 2
Format : AC-3
Format/Info : Audio Coding 3
Mode extension : CM (complete main)
Format settings, Endianness : Big
Muxing mode : Header stripping
Codec ID : A_AC3
Duration : 2h 6mn
Bit rate mode : Constant
Bit rate : 448 Kbps
Channel count : 6 channels
Channel positions : Front: L C R, Side: L R, LFE
Sampling rate : 48.0 KHz
Bit depth : 16 bits
Compression mode : Lossy
Stream size : 407 MiB (13%)
Title : Espanol Latino
Default : Yes
Forced : No
Audio #2
ID : 3
Format : AC-3
Format/Info : Audio Coding 3
Mode extension : CM (complete main)
Format settings, Endianness : Big
Muxing mode : Header stripping
Codec ID : A_AC3
Duration : 2h 6mn
Bit rate mode : Constant
Bit rate : 448 Kbps
Channel count : 6 channels
Channel positions : Front: L C R, Side: L R, LFE
Sampling rate : 48.0 KHz
Bit depth : 16 bits
Compression mode : Lossy
Stream size : 407 MiB (13%)
Title : Ingles
Default : No
Forced : No
Text #1
ID : 4
Format : UTF-8
Codec ID : S_TEXT/UTF8
Codec ID/Info : UTF-8 Plain Text
Default : Yes
Forced : No
Text #2
ID : 5
Format : UTF-8
Codec ID : S_TEXT/UTF8
Codec ID/Info : UTF-8 Plain Text
Title : Subtitulos Espanol
Default : No
Forced : No









Código: You are not allowed to view links. Register or Login
[url]https://www.oboom.com/OU8HEL9H/lvidpihd.part01.rar[/url]
[url]https://www.oboom.com/1Q1T0XRG/lvidpihd.part02.rar[/url]
[url]https://www.oboom.com/ZBO1HP8X/lvidpihd.part03.rar[/url]
[url]https://www.oboom.com/YB1FWFI8/lvidpihd.part04.rar[/url]
[url]https://www.oboom.com/GJDZ7P4D/lvidpihd.part05.rar[/url]
[url]https://www.oboom.com/PL2TN4OO/lvidpihd.part06.rar[/url]
[url]https://www.oboom.com/Q6MUVFQ1/lvidpihd.part07.rar[/url]
[url]https://www.oboom.com/ZPPSECTL/lvidpihd.part08.rar[/url]
[url]https://www.oboom.com/ROJXPT3Q/lvidpihd.part09.rar[/url]
[url]https://www.oboom.com/MSFWDNGI/lvidpihd.part10.rar[/url]
[url]https://www.oboom.com/RCHSTNTQ/lvidpihd.part11.rar[/url]
[url]https://www.oboom.com/L9VTN26X/lvidpihd.part12.rar[/url]
[url]https://www.oboom.com/TVP9E9Y6/lvidpihd.part13.rar[/url]


Código: You are not allowed to view links. Register or Login
http://www.uploadable.ch/file/cQpRVNuM9ywH/lvidpihd.part01.rar
http://www.uploadable.ch/file/9RsdGajyTG2f/lvidpihd.part02.rar
http://www.uploadable.ch/file/J4Us5wKc5NGG/lvidpihd.part03.rar
http://www.uploadable.ch/file/Bs7ujjHQXUJU/lvidpihd.part04.rar
http://www.uploadable.ch/file/XwaMtxT8BAUf/lvidpihd.part05.rar
http://www.uploadable.ch/file/TfsdxBAUB9Hp/lvidpihd.part06.rar
http://www.uploadable.ch/file/t7jpWKYZjvjz/lvidpihd.part07.rar
http://www.uploadable.ch/file/7m4Qm5GsMmZm/lvidpihd.part08.rar
http://www.uploadable.ch/file/K7h4vaHbVnnT/lvidpihd.part09.rar
http://www.uploadable.ch/file/2t6jzTtUkF2H/lvidpihd.part10.rar
http://www.uploadable.ch/file/gT46vVs6TZRz/lvidpihd.part11.rar
http://www.uploadable.ch/file/s3tugVmHBs9t/lvidpihd.part12.rar
http://www.uploadable.ch/file/ScmtA7uh2nxc/lvidpihd.part13.rar

Tags:
Tags:

 


SMF 2.0.11 | SMF © 2015, Simple Machines
Paginas Afiliadas
Twitter - FaceBook - Daraxblog
Designed by Smf Personal