Bienvenido a Tecnohackers

Tecnohackers » Cultura y Ocio » Mundo Cine » Joyas del Cine
 » 

Unbroken [2014][BRRip.720][Audio Latino - Castellano - Inglés]



Autor Tema: Unbroken [2014][BRRip.720][Audio Latino - Castellano - Inglés]  (Leído 77 veces)

Desconectado DON PEPE

  • Colaborador
  • ***
  • Mensajes: 838
Unbroken [2014][BRRip.720][Audio Latino - Castellano - Inglés]
« en: Septiembre 20, 2022, 10:28:47 pm »
Unbroken



Unbroken | Año: 2014 | BRRip 720p | MKV | AC3 5.1 | Audios: Español Latino, Castellano, Inglés | Subtítulos: Español, Inglés | Comprimido: Si | 3 Partes (990 MB) | 2.44 GB

You are not allowed to view links. Register or Login

Título original: Unbroken
Otros Títulos: Invencible (España) | Inquebrantable (Hispanoamérica)
Año: 2014
Duración: 132 min.
País: Estados Unidos
Dirección: Angelina Jolie
Guion: Ethan Coen, Joel Coen, Richard LaGravenese, William Nicholson. Libro: Laura Hillenbrand
Música: Alexandre Desplat
Fotografía: Roger Deakins
Reparto: Jack O'Connell, Domhnall Gleeson, Garrett Hedlund, Takamasa Ishihara, John D'Leo, Jai Courtney, Alex Russell, C.J. Valleroy, Luke Treadaway, John Magaro, Spencer Lofranco, Finn Wittrock, Maddalena Ischiale, ver 23 más
Productora: Universal Pictures, Legendary Pictures, Jolie Pass, 3 Arts Entertainment
Género: Drama | Biográfico. Supervivencia. Años 30. Juegos olímpicos. Años 40. II Guerra Mundial

Narra la historia real de Louis Zamperini, un joven que, tras participar en los Juegos Olímpicos de 1936, se alistó en las Fuerzas Aéreas de los Estados Unidos para luchar en la Segunda Guerra Mundial (1939-1945). Cuando el bombardero en el que combatía se estrelló en medio del Pacífico, navegó a la deriva hasta que fue capturado por los japoneses.

Código: You are not allowed to view links. Register or Login
General
Unique ID                                : 265326148116852140766727478227179374027 (0xC79BF5161DC11AA58C9D7F8A719385CB)
Complete name                            : Unbroken.2014.BRRip.720.LATiNO.CAST.ENG.x264.AC3.mkv
Format                                   : Matroska
Format version                           : Version 4
File size                                : 2.58 GiB
Duration                                 : 2 h 17 min
Overall bit rate mode                    : Variable
Overall bit rate                         : 2 683 kb/s
Movie name                               : Unbroken.2014.BRRip.720.LATiNO.CAST.ENG.x264.AC3
Encoded date                             : UTC 2022-09-06 20:33:22
Writing application                      : mkvmerge v70.0.0 ('Caught A Lite Sneeze') 64-bit
Writing library                          : libebml v1.4.2 + libmatroska v1.6.4

Video
ID                                       : 1
Format                                   : AVC
Format/Info                              : Advanced Video Codec
Format profile                           : High@L3.1
Format settings                          : CABAC / 4 Ref Frames
Format settings, CABAC                   : Yes
Format settings, Reference frames        : 4 frames
Codec ID                                 : V_MPEG4/ISO/AVC
Duration                                 : 2 h 17 min
Bit rate mode                            : Variable
Bit rate                                 : 760 kb/s
Maximum bit rate                         : 14.0 Mb/s
Width                                    : 1 280 pixels
Height                                   : 720 pixels
Display aspect ratio                     : 16:9
Frame rate mode                          : Constant
Frame rate                               : 23.976 (24000/1001) FPS
Color space                              : YUV
Chroma subsampling                       : 4:2:0
Bit depth                                : 8 bits
Scan type                                : Progressive
Bits/(Pixel*Frame)                       : 0.034
Stream size                              : 748 MiB (28%)
Writing library                          : x264 core 148 r2727 7d026e8
Default                                  : Yes
Forced                                   : No

Audio #1
ID                                       : 2
Format                                   : AC-3
Format/Info                              : Audio Coding 3
Commercial name                          : Dolby Digital
Codec ID                                 : A_AC3
Duration                                 : 2 h 17 min
Bit rate mode                            : Constant
Bit rate                                 : 640 kb/s
Channel(s)                               : 1 channel
Channel layout                           : C
Sampling rate                            : 48.0 kHz
Frame rate                               : 31.250 FPS (1536 SPF)
Compression mode                         : Lossy
Stream size                              : 630 MiB (24%)
Title                                    : Latino
Language                                 : Latin
Service kind                             : Complete Main
Default                                  : Yes
Forced                                   : No

Audio #2
ID                                       : 3
Format                                   : AC-3
Format/Info                              : Audio Coding 3
Commercial name                          : Dolby Digital
Codec ID                                 : A_AC3
Duration                                 : 2 h 17 min
Bit rate mode                            : Constant
Bit rate                                 : 640 kb/s
Channel(s)                               : 1 channel
Channel layout                           : C
Sampling rate                            : 48.0 kHz
Frame rate                               : 31.250 FPS (1536 SPF)
Compression mode                         : Lossy
Stream size                              : 630 MiB (24%)
Title                                    : Castellano
Language                                 : Spanish
Service kind                             : Complete Main
Default                                  : No
Forced                                   : No

Audio #3
ID                                       : 4
Format                                   : AC-3
Format/Info                              : Audio Coding 3
Commercial name                          : Dolby Digital
Codec ID                                 : A_AC3
Duration                                 : 2 h 17 min
Bit rate mode                            : Constant
Bit rate                                 : 640 kb/s
Channel(s)                               : 1 channel
Channel layout                           : C
Sampling rate                            : 48.0 kHz
Frame rate                               : 31.250 FPS (1536 SPF)
Compression mode                         : Lossy
Stream size                              : 630 MiB (24%)
Title                                    : Inglés
Language                                 : English
Service kind                             : Complete Main
Default                                  : No
Forced                                   : No

Text #1
ID                                       : 5
Format                                   : UTF-8
Codec ID                                 : S_TEXT/UTF8
Codec ID/Info                            : UTF-8 Plain Text
Duration                                 : 2 h 10 min
Bit rate                                 : 1 b/s
Frame rate                               : 0.005 FPS
Count of elements                        : 37
Stream size                              : 1.60 KiB (0%)
Title                                    : Esp Forzados
Language                                 : Spanish
Default                                  : Yes
Forced                                   : No

Text #2
ID                                       : 6
Format                                   : UTF-8
Codec ID                                 : S_TEXT/UTF8
Codec ID/Info                            : UTF-8 Plain Text
Duration                                 : 2 h 10 min
Bit rate                                 : 21 b/s
Frame rate                               : 0.107 FPS
Count of elements                        : 838
Stream size                              : 20.6 KiB (0%)
Title                                    : Español
Language                                 : Spanish
Default                                  : No
Forced                                   : No

Text #3
ID                                       : 7
Format                                   : UTF-8
Codec ID                                 : S_TEXT/UTF8
Codec ID/Info                            : UTF-8 Plain Text
Duration                                 : 2 h 10 min
Bit rate                                 : 1 b/s
Frame rate                               : 0.005 FPS
Count of elements                        : 38
Stream size                              : 1.34 KiB (0%)
Title                                    : Eng Forced
Language                                 : English
Default                                  : No
Forced                                   : No

Text #4
ID                                       : 8
Format                                   : UTF-8
Codec ID                                 : S_TEXT/UTF8
Codec ID/Info                            : UTF-8 Plain Text
Duration                                 : 2 h 14 min
Bit rate                                 : 28 b/s
Frame rate                               : 0.134 FPS
Count of elements                        : 1081
Stream size                              : 28.0 KiB (0%)
Title                                    : Inglés
Language                                 : English
Default                                  : No
Forced                                   : No


You are not allowed to view links. Register or Login You are not allowed to view links. Register or Login You are not allowed to view links. Register or Login

You are not allowed to view links. Register or Login You are not allowed to view links. Register or Login You are not allowed to view links. Register or Login

Descargar desde
UPLOADED - RAPIDGATOR - SEND - UP-4EVER


You are not allowed to view links. Register or Login

Para descomprimir el archivo debes usar el Winrar v6.11

You are not allowed to view links. Register or Login

Si los enlaces están muertos solo avísame respondiendo en el tema y lo soluciono.

Siempre estoy suscrito a mis aportes.


 


SMF 2.0.11 | SMF © 2015, Simple Machines
Paginas Afiliadas
Twitter - FaceBook - Daraxblog
Designed by Smf Personal