Bienvenido a Tecnohackers

Tecnohackers » Cultura y Ocio » Mundo Cine » Series
 » 

Pan Am (2011)[T.1][MicroHD 720p][Castellano][14/14][1.3GB][VS]



Autor Tema: Pan Am (2011)[T.1][MicroHD 720p][Castellano][14/14][1.3GB][VS]  (Leído 91 veces)

Desconectado parrix

  • Asiduo
  • *
  • Mensajes: 77









Título original Pan Am
Año 2011
Duración 40 min.
País Estados Unidos
Dirección Jack Orman (Creator), Thomas Schlamme, Andrew Bernstein, John Fortenberry
Guion Jack Orman, Nancy Hult Ganis, Mike Daniels, Moira Walley-Beckett, Nick Thiel
Música Blake Neely
Fotografía Ron Fortunato, John Lindley
Reparto Christina Ricci, Margot Robbie, Karine Vanasse, Kelli Garner, Michael Mosley, Jeremy Davidson, Mike Vogel, Ashley Greene, David Harbour, Annabelle Wallis, Veanne Cox, Kal Parekh, Goran Visnjic, Bill Heck, Erin Cummings, Colin Donnell, Will Chase, Jay O. Sanders, Piter Marek
Productora Emitida por la cadena ABC; Sony Pictures Television
Género Serie de TV. Drama | Años 60. Aviones





Calidad: MicroHD 720p
Formato: MKV
Resolución: 1280x720p
Video: AVC x264
Audio: Castellano AC3 48000 Hz
Tamaño: 1,3 GB
Subtítulos: Forzados





Descomprimir con winrar, 7zip o programa similar.



MediaInfo:

Código: You are not allowed to view links. Register or Login

General
Unique ID                   : 219583599943830445861077949546737988371 (0xA5324356C628A43C84935A3D712C7313)
Complete name               : Pan.Am.1x01.72Op.mkv
Format                      : Matroska
Format version              : Version 4 / Version 2
File size                   : 1.40 GiB
Duration                    : 44 min 3 s
Overall bit rate            : 4 544 kb/s
Movie name                  : jade
Encoded date                : UTC 2019-03-17 10:46:48
Writing application         : mkvmerge v7.2.0 ('On Every Street') 64bit built on Sep 13 2014 15:52:10
Writing library             : libebml v1.3.0 + libmatroska v1.4.1

Video
ID                          : 1
Format                      : AVC
Format/Info                 : Advanced Video Codec
Format profile              : High@L3.1
Format settings             : 2 Ref Frames
Format settings, CABAC      : No
Format settings, RefFrames  : 2 frames
Codec ID                    : V_MPEG4/ISO/AVC
Duration                    : 44 min 3 s
Bit rate                    : 4 096 kb/s
Width                       : 1 280 pixels
Height                      : 720 pixels
Display aspect ratio        : 16:9
Frame rate mode             : Constant
Frame rate                  : 23.976 (23976/1000) FPS
Color space                 : YUV
Chroma subsampling          : 4:2:0
Bit depth                   : 8 bits
Scan type                   : Progressive
Bits/(Pixel*Frame)          : 0.185
Stream size                 : 1.26 GiB (90%)
Language                    : English
Default                     : Yes
Forced                      : No
Color range                 : Limited
Color primaries             : BT.709
Transfer characteristics    : BT.709
Matrix coefficients         : BT.709

Audio
ID                          : 2
Format                      : AC-3
Format/Info                 : Audio Coding 3
Format settings, Endianness : Big
Codec ID                    : A_AC3
Duration                    : 43 min 55 s
Bit rate mode               : Constant
Bit rate                    : 448 kb/s
Channel(s)                  : 6 channels
Channel positions           : Front: L C R, Side: L R, LFE
Sampling rate               : 48.0 kHz
Frame rate                  : 31.250 FPS (1536 SPF)
Bit depth                   : 16 bits
Compression mode            : Lossy
Stream size                 : 141 MiB (10%)
Language                    : Spanish
Service kind                : Complete Main
Default                     : Yes
Forced                      : Yes

Text
ID                          : 3
Format                      : UTF-8
Codec ID                    : S_TEXT/UTF8
Codec ID/Info               : UTF-8 Plain Text
Duration                    : 22 min 38 s
Bit rate                    : 0 b/s
Count of elements           : 4
Stream size                 : 97.0 Bytes (0%)
Default                     : Yes
Forced                      : No






En plena década de los 60, en el mundo de los vuelos de lujo, los atractivos pilotos y azafatas no sólo están entrenados para ser glamurosos, sino que también tienen que encargarse de cualquier emergencia o situación fuera de lo común que se produzca a bordo del avión. Enredos, pasión, celos e incluso espionaje mientras vuelan a más de 30.000 pies de altura.









Descarga todo de un servidor FREE + 1 parte NO FREE

Para descargar tener abierto JDownloader v2, Mipony o programa similar














1x01:

[HIDE]
Código: You are not allowed to view links. Register or Login

https://safelinking.net/yXooBdt

[/HIDE]

1x02:

[HIDE]
Código: You are not allowed to view links. Register or Login

https://safelinking.net/iXPy4YR

[/HIDE]

1x03:

[HIDE]
Código: You are not allowed to view links. Register or Login

https://safelinking.net/S1tMmoP

[/HIDE]

1x04:

[HIDE]
Código: You are not allowed to view links. Register or Login

https://safelinking.net/YZmMiIq

[/HIDE]

1x05:

[HIDE]
Código: You are not allowed to view links. Register or Login

https://safelinking.net/zWGoHoN

[/HIDE]

1x06:

[HIDE]
Código: You are not allowed to view links. Register or Login

https://safelinking.net/7xTRxuq

[/HIDE]

1x07:

[HIDE]
Código: You are not allowed to view links. Register or Login

https://safelinking.net/YszK61o

[/HIDE]

1x08:

[HIDE]
Código: You are not allowed to view links. Register or Login

https://safelinking.net/yLwSfcz

[/HIDE]

1x09:

[HIDE]
Código: You are not allowed to view links. Register or Login

https://safelinking.net/rFtFXYl

[/HIDE]

1x10:

[HIDE]
Código: You are not allowed to view links. Register or Login

https://safelinking.net/rCuBLDK

[/HIDE]

1x11:

[HIDE]
Código: You are not allowed to view links. Register or Login

https://safelinking.net/cWPX3As


[/HIDE]

1x12:

[HIDE]
Código: You are not allowed to view links. Register or Login

https://safelinking.net/KkjeuAw

[/HIDE]

1x13:

[HIDE]
Código: You are not allowed to view links. Register or Login

https://safelinking.net/uHxKAbg

[/HIDE]

1x14:

[HIDE]
Código: You are not allowed to view links. Register or Login

https://safelinking.net/ZMcsNTr

[/HIDE]


Visita mi perfil para ver todos mis aportes






Tags:
Tags:

 


SMF 2.0.11 | SMF © 2015, Simple Machines
Paginas Afiliadas
Twitter - FaceBook - Daraxblog
Designed by Smf Personal