Bienvenido a Tecnohackers

Tecnohackers » Cultura y Ocio » Mundo Cine » Series
 » 

Ártico (2018)[T.1][MicroHD 1080p][Castellano][5/10][2GB][VS]



Autor Tema: Ártico (2018)[T.1][MicroHD 1080p][Castellano][5/10][2GB][VS]  (Leído 148 veces)

Desconectado parrix

  • Asiduo
  • *
  • Mensajes: 77









Título original: Arctic Circle
Año: 2018
País: Finlandia
Dirección: Hannu Salonen
Guion: Olli Haikka, Petja Peltomaa, Joona Tena, Jón Atli Jónasson (Historia: Olli Tola)
Música: Vladislav Delay
Fotografía: Mikael Gustafsson
Reparto: Iina Kuustonen, Maximilian Brückner, Pihla Viitala, Anna Ackerman, Susanna Haavisto, Clemens Schick, Jóhann G. Jóhannsson, Kari Ketonen, Taneli Mäkelä, Anu Sinisalo, Janne Kataja, Mikko Leppilampi, Maria Ylipää, Jari Virman, Inka Kallén, Raili Raitala, Alina Tomnikov, Aleksandar Jovanovic, Carlos Marroquin, Lena Meriläinen, Kristofer Gummerus, Kari Hietalahti, Chike Ohanwe, Carl-Kristian Rundman, Ilona Chevakova, Artur Kukov, Regina Launivuo, Terhi Tuulia Lintukangas, Janina Mattsoff, Juho Orpana, Rami Peltonen, Juha Ruokola, Kristo Salminen, Anastasia Trizna
Productora: Coproducción Finlandia-Alemania; Yellow Film & TV / Bavaria Fiction. Distribuida por Lagardère Studios Distribution
Género: Serie de TV. Thriller. Intriga | Crimen





Calidad: MicroHD 1080p
Formato: MKV
Resolución: 1920x1080p
Video: AVC H264
Audio: Castellano 48000 Hz
Tamaño: 2 GB
Subtítulos: Si





Descomprimir con winrar, 7zip o programa similar.



MediaInfo:

Código: You are not allowed to view links. Register or Login

General
Unique ID                   : 174946575265531060645489417586718639003 (0x839D7C1BAB2457CE8E8E88A382A5839B)
Complete name               : Artic0.1x01.M1O8O.mkv
Format                      : Matroska
Format version              : Version 4 / Version 2
File size                   : 1.99 GiB
Duration                    : 45 min 44 s
Overall bit rate            : 6 219 kb/s
Encoded date                : UTC 2019-03-19 10:30:27
Writing application         : mkvmerge v6.2.0 ('Promised Land') built on Apr 28 2013 12:22:01
Writing library             : libebml v1.3.0 + libmatroska v1.4.0

Video
ID                          : 1
Format                      : AVC
Format/Info                 : Advanced Video Codec
Format profile              : High@L4
Format settings             : CABAC / 4 Ref Frames
Format settings, CABAC      : Yes
Format settings, RefFrames  : 4 frames
Codec ID                    : V_MPEG4/ISO/AVC
Bit rate                    : 5 775 kb/s
Width                       : 1 920 pixels
Height                      : 1 080 pixels
Display aspect ratio        : 16:9
Frame rate mode             : Variable
Original frame rate         : 25.000 FPS
Standard                    : Component
Color space                 : YUV
Chroma subsampling          : 4:2:0
Bit depth                   : 8 bits
Scan type                   : MBAFF
Scan type, store method     : Separated fields
Scan order                  : Top Field First
Default                     : Yes
Forced                      : No
Color range                 : Limited
Color primaries             : BT.709
Transfer characteristics    : BT.709
Matrix coefficients         : BT.709

Audio #1
ID                          : 2
Format                      : MPEG Audio
Format version              : Version 1
Format profile              : Layer 2
Codec ID                    : A_MPEG/L2
Codec ID/Hint               : MP2
Duration                    : 45 min 44 s
Bit rate mode               : Constant
Bit rate                    : 192 kb/s
Channel(s)                  : 2 channels
Sampling rate               : 48.0 kHz
Compression mode            : Lossy
Stream size                 : 62.8 MiB (3%)
Language                    : Spanish
Default                     : Yes
Forced                      : Yes

Audio #2
ID                          : 3
Format                      : MPEG Audio
Format version              : Version 1
Format profile              : Layer 2
Format settings             : Joint stereo
Mode                        : Joint stereo
Codec ID                    : A_MPEG/L2
Codec ID/Hint               : MP2
Duration                    : 45 min 44 s
Bit rate mode               : Constant
Bit rate                    : 128 kb/s
Channel(s)                  : 2 channels
Sampling rate               : 48.0 kHz
Compression mode            : Lossy
Stream size                 : 41.9 MiB (2%)
Language                    : Finnish
Default                     : No
Forced                      : No

Text
ID                          : 4
Format                      : UTF-8
Codec ID                    : S_TEXT/UTF8
Codec ID/Info               : UTF-8 Plain Text
Language                    : Spanish
Default                     : No
Forced                      : No






El Círculo Polar Ártico está situado en la implacable región polar, en medio de los paisajes helados de la Laponia finlandesa. Después de que Nina Kautsalo, una oficial de la policía finlandesa, encuentra a una prostituta moribunda en una vieja cabaña en el desierto, la investigación criminal subsiguiente toma un giro sorpresa cuando se descubre un virus mortal en la sangre de la prostituta industrial.









Descarga todo de un servidor FREE + 1 parte NO FREE

Para descargar tener abierto JDownloader v2, Mipony o programa similar














1x01:

[HIDE]
Código: You are not allowed to view links. Register or Login

https://safelinking.net/dDwfwkp

[/HIDE]

1x02:

[HIDE]
Código: You are not allowed to view links. Register or Login

https://safelinking.net/dbBnL1t

[/HIDE]

1x03:

[HIDE]
Código: You are not allowed to view links. Register or Login

https://safelinking.net/rNWaejJ

[/HIDE]

1x04:

[HIDE]
Código: You are not allowed to view links. Register or Login

https://safelinking.net/Ib58JMW

[/HIDE]

1x05:

[HIDE]
Código: You are not allowed to view links. Register or Login

https://safelinking.net/gEBRuan

[/HIDE]


Visita mi perfil para ver todos mis aportes




« Última modificación: Abril 18, 2019, 09:09:30 am por parrix »

Desconectado parrix

  • Asiduo
  • *
  • Mensajes: 77
Re:Ártico (2018)[T.1][MicroHD 1080p][Castellano][5/10][2GB][VS]
« Respuesta #1 en: Abril 18, 2019, 09:41:21 am »
Añadido el capitulo 5, hasta la proxima!

Desconectado Stormy

  • Habitual
  • **
  • Mensajes: 171
Re:Ártico (2018)[T.1][MicroHD 1080p][Castellano][5/10][2GB][VS]
« Respuesta #2 en: Abril 25, 2019, 04:52:01 pm »
graciassssssss

Tags:
Tags:

 


SMF 2.0.11 | SMF © 2015, Simple Machines
Paginas Afiliadas
Twitter - FaceBook - Daraxblog
Designed by Smf Personal