Bienvenido a Tecnohackers

Tecnohackers » Cultura y Ocio » Mundo Cine » Series
 » 

La Chica del Tambor (2018)[Miniserie][MicroHD 720p][Castellano][800MB][6/6][VS]



Autor Tema: La Chica del Tambor (2018)[Miniserie][MicroHD 720p][Castellano][800MB][6/6][VS]  (Leído 100 veces)

Desconectado parrix

  • Asiduo
  • *
  • Mensajes: 77








Título original: The Little Drummer Girl
Año: 2018
Duración: 60 min.
País : Reino Unido
Director: Park Chan-wook
Guión: Michael Lesslie, Claire Wilson (Novela: John Le Carré)
Música: Matt Mariano, Zach Stretten-Carlson
Fotografía: Kim Woo-Hyung
Reparto: Florence Pugh, Alexander Skarsgård, Michael Shannon, Clare Holman, Kate Sumpter, Michael Moshonov, Daniel Litman, Gennady Fleyscher, Alessandro Piavani, Lubna Azabal, Shlomo Bar-Aba, Alexander Beyer, Bethany Muir, Tom Hanson, Adel Bencherif, Iben Akerlie, Sam Troughton, Simona Brown, Max Irons, Shani Erez, Mark Stanley, Oulaya Amamra, Thomas Mraz, Jeremy Child, Shane Attwooll, Katharina Schüttler
Productora: Emitida por BBC, AMC; The Ink Factory / AMC Networks / BBC / Endeavor Content
Género: Serie de TV. Thriller. Drama | Miniserie de TV. Años 70. Terrorismo





Calidad: MicroHD 720p
Formato: MKV
Resolución: 1280x720p
Video: AVC x264
Audio: Castellano AC3 48000 Hz
Tamaño: 800 MB Apróx.
Subtítulos: No



MediaInfo:

Código: You are not allowed to view links. Register or Login

General
Unique ID                                : 97387878494636784505827908781152165693 (0x4944391FCA117C7300825B7E91445F3D)
Complete name                            : /La.chica.del.tambor.1x01.M72O.mkv
Format                                   : Matroska
Format version                           : Version 4
File size                                : 901 MiB
Duration                                 : 55 min 57 s
Overall bit rate mode                    : Variable
Overall bit rate                         : 2 250 kb/s
Movie name                               : La.chica.del.tambor.1x01.M72O.mkv
Encoded date                             : UTC 2019-01-12 12:21:42
Writing application                      : mkvmerge v29.0.0 ('Like It Or Not') 64-bit
Writing library                          : libebml v1.3.6 + libmatroska v1.4.9

Video
ID                                       : 1
Format                                   : AVC
Format/Info                              : Advanced Video Codec
Format profile                           : High@L4.1
Format settings                          : CABAC / 4 Ref Frames
Format settings, CABAC                   : Yes
Format settings, ReFrames                : 4 frames
Codec ID                                 : V_MPEG4/ISO/AVC
Duration                                 : 55 min 57 s
Bit rate mode                            : Variable
Bit rate                                 : 1 800 kb/s
Maximum bit rate                         : 50.0 Mb/s
Width                                    : 1 280 pixels
Height                                   : 720 pixels
Display aspect ratio                     : 16:9
Frame rate mode                          : Constant
Frame rate                               : 25.000 FPS
Color space                              : YUV
Chroma subsampling                       : 4:2:0
Bit depth                                : 8 bits
Scan type                                : Progressive
Bits/(Pixel*Frame)                       : 0.078
Stream size                              : 721 MiB (80%)
Title                                    : La.chica.del.tambor.1x01.M72O.mkv
Writing library                          : x264 core 157 r2935 545de2f
Encoding settings                        : cabac=1 / ref=4 / deblock=1:0:0 / analyse=0x3:0x133 / me=hex / subme=7 / psy=1 / psy_rd=0.40:0.00 / mixed_ref=1 / me_range=16 / chroma_me=1 / trellis=1 / 8x8dct=1 / cqm=0 / deadzone=21,11 / fast_pskip=0 / chroma_qp_offset=-2 / threads=18 / lookahead_threads=3 / sliced_threads=0 / nr=0 / decimate=1 / interlaced=0 / bluray_compat=0 / constrained_intra=0 / bframes=3 / b_pyramid=2 / b_adapt=1 / b_bias=0 / direct=3 / weightb=1 / open_gop=0 / weightp=2 / keyint=250 / keyint_min=25 / scenecut=40 / intra_refresh=0 / rc_lookahead=40 / rc=2pass / mbtree=1 / bitrate=1800 / ratetol=1.0 / qcomp=0.60 / qpmin=0 / qpmax=69 / qpstep=4 / cplxblur=20.0 / qblur=0.5 / vbv_maxrate=50000 / vbv_bufsize=62500 / nal_hrd=vbr / filler=0 / ip_ratio=1.40 / aq=1:1.00
Language                                 : English
Default                                  : Yes
Forced                                   : No
Color range                              : Limited
Color primaries                          : BT.709
Transfer characteristics                 : BT.709
Matrix coefficients                      : BT.709

Audio
ID                                       : 2
Format                                   : AC-3
Format/Info                              : Audio Coding 3
Commercial name                          : Dolby Digital
Codec ID                                 : A_AC3
Duration                                 : 55 min 57 s
Bit rate mode                            : Constant
Bit rate                                 : 448 kb/s
Channel(s)                               : 6 channels
Channel layout                           : L R C LFE Ls Rs
Sampling rate                            : 48.0 kHz
Frame rate                               : 31.250 FPS (1536 SPF)
Bit depth                                : 16 bits
Compression mode                         : Lossy
Stream size                              : 179 MiB (20%)
Title                                    : La.chica.del.tambor.1x01.M72O.mkv
Language                                 : Spanish
Service kind                             : Complete Main
Default                                  : Yes
Forced                                   : No

Text
ID                                       : 3
Format                                   : UTF-8
Codec ID                                 : S_TEXT/UTF8
Codec ID/Info                            : UTF-8 Plain Text
Duration                                 : 44 min 59 s
Bit rate                                 : 2 b/s
Count of elements                        : 27
Stream size                              : 711 Bytes (0%)
Title                                    : La.chica.del.tambor.1x01.M72O.mkv
Language                                 : Spanish
Default                                  : Yes
Forced                                   : No




Descomprimir con winrar, 7zip o programa similar.







Miniserie basada en la famosa novela de espionaje de John Le Carré, y el debut televisivo del director Park Chan-wook (Oldboy, La doncella). Ambientada en los años 70, tras la masacre de Munich y durante la época más activa del terrorismo palestino. El Mossad, poniendo en práctica un plan tan maquiavélico como inteligente, capta los servicios involuntarios de Charlie (Florence Pugh), una actriz inglesa de poca monta y vida bohemia. Charlie es sometida a un duro entrenamiento psicológico para que consiga atrapar a Khalil.









Descarga todo de un servidor FREE + 1 parte NO FREE

Para descargar tener abierto JDownloader v2, Mipony o programa similar














[HIDE]
Código: You are not allowed to view links. Register or Login

https://safelinking.net/U99JxZc

[/HIDE]


Visita mi perfil para ver todos mis aportes





Desconectado Stormy

  • Habitual
  • **
  • Mensajes: 171
gracias por el aporte

Tags:
Tags:

 


SMF 2.0.11 | SMF © 2015, Simple Machines
Paginas Afiliadas
Twitter - FaceBook - Daraxblog
Designed by Smf Personal