Bienvenido a Tecnohackers

Tecnohackers » Cultura y Ocio » Mundo Cine » Series
 » 

I Am the Night (2019)[Miniserie][MicroHD 720p][Castellano][700MB][6/6][VS]



Autor Tema: I Am the Night (2019)[Miniserie][MicroHD 720p][Castellano][700MB][6/6][VS]  (Leído 97 veces)

Desconectado parrix

  • Asiduo
  • *
  • Mensajes: 77








Título original: I Am the Night
Año: 2019
Duración: 60 min.
País : Estados Unidos
Director: Patty Jenkins, Carl Franklin, Victoria Mahoney
Guión: Fauna Hodel, Monica Beletsky, Sam Sheridan
Música: David Lang
Fotografía: Trevor Forrest, Matthew Jensen, Michael McDonough
Reparto: Chris Pine, India Eisley, Jefferson Mays, Dylan Smith, Connie Nielsen, Shoniqua Shandai, Jay Paulson, Leland Orser, Justin Cornwell, Alexander Kanellakos, Quintyne Lawrence, Arlen Escarpeta, Monique Green, Hayley Marie Norman, Astro, William Pierce, Mariko Wordell, Golden Brooks, Richard Gleason, Yul Vazquez, Dabier, Seth Ayott, Sean Bolger, Devon Bostick, Mickey O'Hagan, Brent Chase, Dale Dickey, Kassidy Slaughter, Hugo Pierre Martin, Charles Gillespie, Marco St. John, John Laughlin, Kristof Konrad, Tina Grimm, Sisa Grey, Megan Stier, Stefan Lysenko, Terrence Terrell, Sheila Shaw, Scott Subiono, Daniel Hagen, Jim Jepson, Keston John, Charlie Weirauch, Chris Johnson, Elester Latham, Matthew Dennis Lewis, Anthony Molinari
Productora: Studio T. Distribuida por TNT [USA]
Género: Serie de TV. Thriller. Drama | Basado en hechos reales. Miniserie de TV





Calidad: MicroHD 720p
Formato: MKV
Resolución: 1280x720p
Video: AVC x264
Audio: Castellano AC3 48000 Hz
Tamaño: 700 MB
Subtítulos: No



MediaInfo:

Código: You are not allowed to view links. Register or Login

General
Unique ID                                : 165605045610431394113777378870716484699 (0x7C965F2307D4BA3CA69BF91E79574C5B)
Complete name                            : /I.Am.the.Night.1x01.M72O.mkv
Format                                   : Matroska
Format version                           : Version 4
File size                                : 773 MiB
Duration                                 : 54 min 15 s
Overall bit rate mode                    : Variable
Overall bit rate                         : 1 992 kb/s
Movie name                               : /I.Am.the.Night.1x01.M72O.mkv
Encoded date                             : UTC 2019-02-28 00:22:42
Writing application                      : mkvmerge v30.1.0 ('Forever And More') 64-bit
Writing library                          : libebml v1.3.6 + libmatroska v1.4.9

Video
ID                                       : 1
Format                                   : AVC
Format/Info                              : Advanced Video Codec
Format profile                           : High@L4.1
Format settings                          : CABAC / 4 Ref Frames
Format settings, CABAC                   : Yes
Format settings, ReFrames                : 4 frames
Codec ID                                 : V_MPEG4/ISO/AVC
Duration                                 : 54 min 15 s
Bit rate mode                            : Variable
Bit rate                                 : 1 799 kb/s
Maximum bit rate                         : 50.0 Mb/s
Width                                    : 1 280 pixels
Height                                   : 720 pixels
Display aspect ratio                     : 16:9
Frame rate mode                          : Constant
Frame rate                               : 23.976 (24000/1001) FPS
Color space                              : YUV
Chroma subsampling                       : 4:2:0
Bit depth                                : 8 bits
Scan type                                : Progressive
Bits/(Pixel*Frame)                       : 0.081
Stream size                              : 698 MiB (90%)
Title                                    : /I.Am.the.Night.1x01.M72O.mkv
Writing library                          : x264 core 157 r2935 545de2f
Encoding settings                        : cabac=1 / ref=4 / deblock=1:0:0 / analyse=0x3:0x133 / me=hex / subme=7 / psy=1 / psy_rd=0.40:0.00 / mixed_ref=1 / me_range=16 / chroma_me=1 / trellis=1 / 8x8dct=1 / cqm=0 / deadzone=21,11 / fast_pskip=0 / chroma_qp_offset=-2 / threads=18 / lookahead_threads=3 / sliced_threads=0 / nr=0 / decimate=1 / interlaced=0 / bluray_compat=0 / constrained_intra=0 / bframes=2 / b_pyramid=2 / b_adapt=1 / b_bias=0 / direct=3 / weightb=1 / open_gop=0 / weightp=2 / keyint=240 / keyint_min=23 / scenecut=40 / intra_refresh=0 / rc_lookahead=40 / rc=2pass / mbtree=1 / bitrate=1799 / ratetol=1.0 / qcomp=0.60 / qpmin=0 / qpmax=69 / qpstep=4 / cplxblur=20.0 / qblur=0.5 / vbv_maxrate=50000 / vbv_bufsize=62500 / nal_hrd=vbr / filler=0 / ip_ratio=1.40 / aq=1:1.00
Language                                 : English
Default                                  : Yes
Forced                                   : No
Color range                              : Limited
Color primaries                          : BT.709
Transfer characteristics                 : BT.709
Matrix coefficients                      : BT.709

Audio
ID                                       : 2
Format                                   : AC-3
Format/Info                              : Audio Coding 3
Commercial name                          : Dolby Digital
Codec ID                                 : A_AC3
Duration                                 : 54 min 15 s
Bit rate mode                            : Constant
Bit rate                                 : 192 kb/s
Channel(s)                               : 2 channels
Channel layout                           : L R
Sampling rate                            : 48.0 kHz
Frame rate                               : 31.250 FPS (1536 SPF)
Bit depth                                : 16 bits
Compression mode                         : Lossy
Stream size                              : 74.5 MiB (10%)
Title                                    : /I.Am.the.Night.1x01.M72O.mkv
Language                                 : Spanish
Service kind                             : Complete Main
Default                                  : Yes
Forced                                   : No




Descomprimir con winrar, 7zip o programa similar.







Cuando la joven mestiza Fauna Hodel (India Eisley) descubre que nada más nacer fue entregada en adopción por su madre biológica a un hombre de color que trabajaba en los baños de un casino de Nevada en 1949, la chica se propone conocer a su familia biológica. Cuando comienza a investigar, la principal pista que tiene la lleva a contactar con el Dr. George Hodel, un hombre involucrado en el más oscuro desenfreno de Hollywood y sospechoso del infame asesinato "Black Dahlia" de Elizabeth Short, en Los Ángeles en 1947. Además el camino de Fauna se cruzará con el de Jay Singletary (Chris Pine), un reportero que investigó en el pasado el caso sin resolver y que ahora acepta cualquier trabajo que le permita sobrevivir.









Descarga todo de un servidor FREE + 1 parte NO FREE

Para descargar tener abierto JDownloader v2, Mipony o programa similar














[HIDE]
Código: You are not allowed to view links. Register or Login

https://safelinking.net/IUmpDfN

[/HIDE]


Visita mi perfil para ver todos mis aportes





Tags:
Tags:

 


SMF 2.0.11 | SMF © 2015, Simple Machines
Paginas Afiliadas
Twitter - FaceBook - Daraxblog
Designed by Smf Personal