Bienvenido a Tecnohackers

Tecnohackers » Cultura y Ocio » Mundo Cine » Series
 » 

Antes de perder (2019)[T.1][MicroHD 720p][Castellano][7/7][600MB][VS]



Autor Tema: Antes de perder (2019)[T.1][MicroHD 720p][Castellano][7/7][600MB][VS]  (Leído 127 veces)

Desconectado parrix

  • Asiduo
  • *
  • Mensajes: 77









Título original Antes de perder
Año 2019
Duración 15 min.
País España
Dirección
Sonia Méndez
Fotografía Lucía C. Pan
Reparto Esther Acebo,  Mariam Hernández,  Manuel Manquiña,  David Amor,  Xosé Barato, Xulio Abonjo,  Patricia Vázquez,  Carolina Iglesias,  Alberto Rolán,  Federico Pérez, Marcos Pereiro,  Xosé A. Touriñán
Productora Televisión Española (TVE). Distribuida por Televisión Española (TVE)
Género Serie de TV. Comedia | Road Movie. Feminismo





Calidad: MicroHD 720p
Formato: MKV
Resolución: 1280x720p
Video: AVC H264
Audio: Castellano AC3 48000 Hz
Tamaño: 600 MB
Subtítulos: No





Descomprimir con winrar, 7zip o programa similar.



MediaInfo:

Código: You are not allowed to view links. Register or Login

General
Unique ID                                : 185866743152957773060871273747474614947 (0x8BD4A1F410E3DF859BB691303DE90AA3)
Complete name                            : Antes.de.perder.1x01.M72O.mkv
Format                                   : Matroska
Format version                           : Version 2
File size                                : 582 MiB
Duration                                 : 15 min 35 s
Overall bit rate                         : 5 215 kb/s
Movie name                               : Antes.de.perder.1x01.M72O.mkv
Encoded date                             : UTC 2019-03-08 13:31:31
Writing application                      : mkvmerge v5.3.0 ('I could have danced') built on Feb  9 2012 10:38:07
Writing library                          : libebml v1.2.3 + libmatroska v1.3.0

Video
ID                                       : 1
Format                                   : AVC
Format/Info                              : Advanced Video Codec
Format profile                           : Main@L3.1
Format settings                          : CABAC / 2 Ref Frames
Format settings, CABAC                   : Yes
Format settings, ReFrames                : 2 frames
Muxing mode                              : Header stripping
Codec ID                                 : V_MPEG4/ISO/AVC
Duration                                 : 15 min 35 s
Bit rate                                 : 5 000 kb/s
Width                                    : 1 280 pixels
Height                                   : 720 pixels
Display aspect ratio                     : 16:9
Frame rate mode                          : Constant
Frame rate                               : 25.000 FPS
Color space                              : YUV
Chroma subsampling                       : 4:2:0
Bit depth                                : 8 bits
Scan type                                : Progressive
Bits/(Pixel*Frame)                       : 0.217
Stream size                              : 534 MiB (92%)
Writing library                          : x264 core 77
Encoding settings                        : cabac=1 / ref=1 / deblock=1:0:0 / analyse=0x1:0x11 / me=hex / subme=5 / psy=1 / psy_rd=0.0:0.0 / mixed_ref=0 / me_range=16 / chroma_me=1 / trellis=1 / 8x8dct=0 / cqm=0 / deadzone=21,11 / chroma_qp_offset=0 / threads=8 / nr=0 / decimate=1 / mbaff=0 / constrained_intra=0 / bframes=2 / b_pyramid=0 / b_adapt=1 / b_bias=0 / direct=1 / wpredb=0 / keyint=12 / keyint_min=7 / scenecut=40 / rc_lookahead=12 / rc=abr / mbtree=1 / bitrate=5000 / ratetol=1.0 / qcomp=0.60 / qpmin=10 / qpmax=51 / qpstep=4 / ip_ratio=1.41 / aq=1:1.00
Default                                  : Yes
Forced                                   : No

Audio
ID                                       : 2
Format                                   : MPEG Audio
Format version                           : Version 1
Format profile                           : Layer 3
Format settings                          : Joint stereo
Muxing mode                              : Header stripping
Codec ID                                 : A_MPEG/L3
Codec ID/Hint                            : MP3
Duration                                 : 15 min 35 s
Bit rate mode                            : Constant
Bit rate                                 : 320 kb/s
Channel(s)                               : 2 channels
Sampling rate                            : 44.1 kHz
Compression mode                         : Lossy
Stream size                              : 35.7 MiB (6%)
Writing library                          : LAME3.98.2
Default                                  : Yes
Forced                                   : No






Antes de perder es la historia de Jana y Diana, dos mujeres de treinta y tantos años que son tan diferentes en todo que, en condiciones normales, no hubieran cruzado ni un par de palabras. Pero ahora incluso tienen algo en común: sus vidas están en punto muerto y solo necesitan una chispa para empezar a vivirlas con intensidad... o para acabar pudriéndose en la cárcel. Juntas se lanzarán a la carretera en una huida sin retorno, forjarán una amistad a fuego y asfalto, y compartirán una historia que rompe con los anticuados códigos sobre el concepto de feminidad.









Descarga todo de un servidor FREE + 1 parte NO FREE

Para descargar tener abierto JDownloader v2, Mipony o programa similar














1x01:

[HIDE]
Código: You are not allowed to view links. Register or Login

https://safelinking.net/cEebeUX

[/HIDE]

1x02:

[HIDE]
Código: You are not allowed to view links. Register or Login

https://safelinking.net/sSmu4ls

[/HIDE]

1x03:

[HIDE]
Código: You are not allowed to view links. Register or Login

https://safelinking.net/DIqWJ9T

[/HIDE]

1x04:

[HIDE]
Código: You are not allowed to view links. Register or Login

https://safelinking.net/9RwMdnx

[/HIDE]

1x05:

[HIDE]
Código: You are not allowed to view links. Register or Login

https://safelinking.net/dxthW4m

[/HIDE]

1x06:

[HIDE]
Código: You are not allowed to view links. Register or Login

https://safelinking.net/mQiT2u8

[/HIDE]

1x07:

[HIDE]
Código: You are not allowed to view links. Register or Login

https://safelinking.net/IKWWcub

[/HIDE]


Visita mi perfil para ver todos mis aportes





Desconectado Stormy

  • Habitual
  • **
  • Mensajes: 171
Re:Antes de perder (2019)[T.1][MicroHD 720p][Castellano][7/7][600MB][VS]
« Respuesta #1 en: Abril 12, 2019, 03:47:06 pm »
gracias por el aporte

Tags:
Tags:

 


SMF 2.0.11 | SMF © 2015, Simple Machines
Paginas Afiliadas
Twitter - FaceBook - Daraxblog
Designed by Smf Personal