Bienvenido a Tecnohackers

Tecnohackers » Cultura y Ocio » Mundo Cine » Joyas del Cine
 » 

Campeones (2018)[Varias Calidades][Castellano][Comedia/Drama][VS]



Autor Tema: Campeones (2018)[Varias Calidades][Castellano][Comedia/Drama][VS]  (Leído 327 veces)

Desconectado parrix

  • Asiduo
  • *
  • Mensajes: 77








Título: Campeones
Título original: Campeones
País: España
Estreno en España: 06/04/2018
Lanzamiento en DVD (alquiler): 05/09/2018
Estreno en DVD (venta): 05/09/2018
Estreno en Blu-ray: 05/09/2018
Estreno en VOD: 05/09/2018
Productora: Películas Pendelton, Morena Films, Movistar+
Distribuidora en España: Universal Pictures Spain
Director: Javier Fesser
Guión: Javier Fesser, David Marqués
Reparto: Javier Gutiérrez, Sergio Olmo, Julio Fernández, Jesús Lago, Jesús Vidal, José De Luna, Fran Fuentes, Gloria Ramos, Alberto Nieto Fernández, Roberto Chinchilla, Stefan López. Athenea Mata, Juan Margallo, Luisa Gavasa, Daniel Freire
Calificación: No recomendada para menores de 7 años
Género: Comedia. Drama | Comedia dramática. Discapacidad. Baloncesto





Calidad de Video: HDRip XviD 720x304
Calidad de Audio: Castellano AC3 5.1 @448kbps
Tamaño: 1.97 GB

Descomprimir con winrar, 7zip o programa similar.







Marco, un entrenador profesional de baloncesto, se encuentra un día, en medio de una crisis personal, entrenando a un equipo compuesto por personas con discapacidad intelectual. Lo que comienza como un problema se acaba convirtiendo en una lección de vida.










Descarga todo de un servidor FREE + 1 parte NO FREE

Para descargar tener abierto JDownloader v2, Mipony o programa similar














[HIDE]
Código: You are not allowed to view links. Register or Login

https://safelinking.net/Gf1tQ7c

[/HIDE]


Visita mi perfil para ver todos mis aportes





Desconectado parrix

  • Asiduo
  • *
  • Mensajes: 77
Re:Campeones (2018)[Varias Calidades][Castellano][Comedia/Drama][VS]
« Respuesta #1 en: Marzo 30, 2019, 08:01:10 pm »








Título: Campeones
Título original: Campeones
País: España
Estreno en España: 06/04/2018
Lanzamiento en DVD (alquiler): 05/09/2018
Estreno en DVD (venta): 05/09/2018
Estreno en Blu-ray: 05/09/2018
Estreno en VOD: 05/09/2018
Productora: Películas Pendelton, Morena Films, Movistar+
Distribuidora en España: Universal Pictures Spain
Director: Javier Fesser
Guión: Javier Fesser, David Marqués
Reparto: Javier Gutiérrez, Sergio Olmo, Julio Fernández, Jesús Lago, Jesús Vidal, José De Luna, Fran Fuentes, Gloria Ramos, Alberto Nieto Fernández, Roberto Chinchilla, Stefan López. Athenea Mata, Juan Margallo, Luisa Gavasa, Daniel Freire
Calificación: No recomendada para menores de 7 años
Género: Comedia. Drama | Comedia dramática. Discapacidad. Baloncesto





Calidad de Video: DVDRip XviD 720x304
Calidad de Audio: Castellano AC3 5.1 @448kbps
Tamaño: 1.30 GB

Descomprimir con winrar, 7zip o programa similar.







Marco, un entrenador profesional de baloncesto, se encuentra un día, en medio de una crisis personal, entrenando a un equipo compuesto por personas con discapacidad intelectual. Lo que comienza como un problema se acaba convirtiendo en una lección de vida.

Premios:

2018: 3 Premios Goya: Mejor película, actor revelación (Vidal) y canción. 11 nom.
2018: Premios Feroz: Mejor comedia. 4 nominaciones
2018: Premios Forqué: Mejor película y Premio al cine en educación en valores
2019: Premios Platino: 5 nominaciones incluyendo mejor película, dirección y guion










Descarga todo de un servidor FREE + 1 parte NO FREE

Para descargar tener abierto JDownloader v2, Mipony o programa similar














[HIDE]
Código: You are not allowed to view links. Register or Login

https://safelinking.net/twsbLja

[/HIDE]


Visita mi perfil para ver todos mis aportes





Desconectado parrix

  • Asiduo
  • *
  • Mensajes: 77
Re:Campeones (2018)[Varias Calidades][Castellano][Comedia/Drama][VS]
« Respuesta #2 en: Marzo 30, 2019, 10:10:50 pm »










Título: Campeones
Título original: Campeones
País: España
Estreno en España: 06/04/2018
Lanzamiento en DVD (alquiler): 05/09/2018
Estreno en DVD (venta): 05/09/2018
Estreno en Blu-ray: 05/09/2018
Estreno en VOD: 05/09/2018
Productora: Películas Pendelton, Morena Films, Movistar+
Distribuidora en España: Universal Pictures Spain
Director: Javier Fesser
Guión: Javier Fesser, David Marqués
Reparto: Javier Gutiérrez, Sergio Olmo, Julio Fernández, Jesús Lago, Jesús Vidal, José De Luna, Fran Fuentes, Gloria Ramos, Alberto Nieto Fernández, Roberto Chinchilla, Stefan López. Athenea Mata, Juan Margallo, Luisa Gavasa, Daniel Freire
Calificación: No recomendada para menores de 7 años
Género: Comedia. Drama | Comedia dramática. Discapacidad. Baloncesto





Tamaño: 2.82 GB
Formato: Matroska
Video: AVC
Resolucion: 1280 x 532
Format profile: High@L4.1
Format settings, ReFrames: 2 frames
Audio 1: AC3 5.1 448 Kbps Castellano
Subs: Español e Ingles + Forzados



MediaInfo:

[SPOILER]

Código: You are not allowed to view links. Register or Login

General
Unique ID                   : 79137059119573566797371766273848872679 (0x3B893E417F5E07289E36B7B7214F8EE7)
Complete name               : D:/Campe0nesM72O.mkv
Format                      : Matroska
Format version              : Version 4 / Version 2
File size                   : 3.13 GiB
Duration                    : 2 h 4 min
Overall bit rate            : 3 604 kb/s
Movie name                  : Campe0nesM72O.mkv
Encoded date                : UTC 2018-09-06 04:09:22
Writing application         : mkvmerge v26.0.0 ('In The Game') 64-bit
Writing library             : libebml v1.3.6 + libmatroska v1.4.9

Video
ID                          : 1
Format                      : AVC
Format/Info                 : Advanced Video Codec
Format profile              : High@L4.1
Format settings             : CABAC / 5 Ref Frames
Format settings, CABAC      : Yes
Format settings, RefFrames  : 5 frames
Codec ID                    : V_MPEG4/ISO/AVC
Duration                    : 2 h 4 min
Bit rate                    : 3 154 kb/s
Width                       : 1 280 pixels
Height                      : 532 pixels
Display aspect ratio        : 2.40:1
Frame rate mode             : Constant
Frame rate                  : 23.976 (24000/1001) FPS
Color space                 : YUV
Chroma subsampling          : 4:2:0
Bit depth                   : 8 bits
Scan type                   : Progressive
Bits/(Pixel*Frame)          : 0.193
Stream size                 : 2.74 GiB (88%)
Writing library             : x264 core 142 r2479 dd79a61
Encoding settings           : cabac=1 / ref=5 / deblock=1:-3:-3 / analyse=0x3:0x113 / me=umh / subme=11 / psy=1 / psy_rd=1.10:0.00 / mixed_ref=0 / me_range=48 / chroma_me=1 / trellis=2 / 8x8dct=1 / cqm=0 / deadzone=21,11 / fast_pskip=1 / chroma_qp_offset=-2 / threads=72 / lookahead_threads=4 / sliced_threads=0 / nr=0 / decimate=1 / interlaced=0 / bluray_compat=0 / constrained_intra=0 / bframes=8 / b_pyramid=2 / b_adapt=2 / b_bias=0 / direct=1 / weightb=1 / open_gop=0 / weightp=2 / keyint=240 / keyint_min=24 / scenecut=40 / intra_refresh=0 / rc_lookahead=50 / rc=crf / mbtree=1 / crf=18.0 / qcomp=0.70 / qpmin=0 / qpmax=69 / qpstep=4 / vbv_maxrate=50000 / vbv_bufsize=62500 / crf_max=0.0 / nal_hrd=none / filler=0 / ip_ratio=1.40 / aq=1:1.10
Default                     : Yes
Forced                      : No
Color range                 : Limited
Color primaries             : BT.709
Transfer characteristics    : BT.709
Matrix coefficients         : BT.709

Audio
ID                          : 2
Format                      : AC-3
Format/Info                 : Audio Coding 3
Format settings, Endianness : Big
Codec ID                    : A_AC3
Duration                    : 2 h 4 min
Bit rate mode               : Constant
Bit rate                    : 448 kb/s
Channel(s)                  : 6 channels
Channel positions           : Front: L C R, Side: L R, LFE
Sampling rate               : 48.0 kHz
Frame rate                  : 31.250 FPS (1536 SPF)
Bit depth                   : 16 bits
Compression mode            : Lossy
Delay relative to video     : -5 ms
Stream size                 : 399 MiB (12%)
Language                    : Spanish
Service kind                : Complete Main
Default                     : Yes
Forced                      : Yes

Menu
00:00:00.000                : :1
00:03:51.689                : :2
00:10:45.811                : :3
00:18:37.991                : :4
00:26:17.450                : :5
00:35:03.643                : :6
00:42:32.424                : :7
00:50:56.720                : :8
00:57:19.811                : :9
01:04:39.584                : :10
01:13:48.716                : :11
01:19:29.097                : :12
01:24:46.915                : :13
01:29:17.602                : :14
01:35:12.957                : :15
01:39:55.781                : :16
01:45:23.525                : :17
01:51:27.973                : :18
01:53:56.204                : :19
01:58:50.206                : :20


[/SPOILER]



Descomprimir con winrar, 7zip o programa similar.







Marco, un entrenador profesional de baloncesto, se encuentra un día, en medio de una crisis personal, entrenando a un equipo compuesto por personas con discapacidad intelectual. Lo que comienza como un problema se acaba convirtiendo en una lección de vida.

Premios:

2018: 3 Premios Goya: Mejor película, actor revelación (Vidal) y canción. 11 nom.
2018: Premios Feroz: Mejor comedia. 4 nominaciones
2018: Premios Forqué: Mejor película y Premio al cine en educación en valores
2019: Premios Platino: 5 nominaciones incluyendo mejor película, dirección y guion











Descarga todo de un servidor FREE + 1 parte NO FREE

Para descargar tener abierto JDownloader v2, Mipony o programa similar














[HIDE]
Código: You are not allowed to view links. Register or Login

https://safelinking.net/wnwINlU

[/HIDE]


Visita mi perfil para ver todos mis aportes





Desconectado parrix

  • Asiduo
  • *
  • Mensajes: 77
Re:Campeones (2018)[Varias Calidades][Castellano][Comedia/Drama][VS]
« Respuesta #3 en: Marzo 30, 2019, 11:14:23 pm »








Título: Campeones
Título original: Campeones
País: España
Estreno en España: 06/04/2018
Lanzamiento en DVD (alquiler): 05/09/2018
Estreno en DVD (venta): 05/09/2018
Estreno en Blu-ray: 05/09/2018
Estreno en VOD: 05/09/2018
Productora: Películas Pendelton, Morena Films, Movistar+
Distribuidora en España: Universal Pictures Spain
Director: Javier Fesser
Guión: Javier Fesser, David Marqués
Reparto: Javier Gutiérrez, Sergio Olmo, Julio Fernández, Jesús Lago, Jesús Vidal, José De Luna, Fran Fuentes, Gloria Ramos, Alberto Nieto Fernández, Roberto Chinchilla, Stefan López. Athenea Mata, Juan Margallo, Luisa Gavasa, Daniel Freire
Calificación: No recomendada para menores de 7 años
Género: Comedia. Drama | Comedia dramática. Discapacidad. Baloncesto





Tamaño: 6.17 GB
Formato: Matroska
Video: AVC
Resolucion: 1920 x 800
Format profile: High@L4.1
Format settings, ReFrames: 2 frames
Audio 1: DTS 5.1 1509 Kbps Castellano
Audio 2: AC3 5.1 448 kbps Ingles
Subs: Español e Ingles



MediaInfo:

[SPOILER]

Código: You are not allowed to view links. Register or Login

General
Unique ID                   : 188968221179776636828875723183931655277 (0x8E29F4A0493FA80DB34321EE90C2046D)
Complete name               : D:\Campe0nes.M1O8O.mkv
Format                      : Matroska
Format version              : Version 4 / Version 2
File size                   : 6.17 GiB
Duration                    : 2 h 4 min
Overall bit rate            : 7 112 kb/s
Movie name                  : Campe0nes.M1O8O.mkv
Encoded date                : UTC 2018-12-19 11:25:03
Writing application         : mkvmerge v7.4.0 ('Circles') 32bit built on Dec 12 2014 12:10:09
Writing library             : libebml v1.3.0 + libmatroska v1.4.1

Video
ID                          : 1
Format                      : AVC
Format/Info                 : Advanced Video Codec
Format profile              : High@L4.1
Format settings             : CABAC / 2 Ref Frames
Format settings, CABAC      : Yes
Format settings, RefFrames  : 2 frames
Codec ID                    : V_MPEG4/ISO/AVC
Duration                    : 2 h 4 min
Bit rate                    : 5 152 kb/s
Width                       : 1 920 pixels
Height                      : 800 pixels
Display aspect ratio        : 2.40:1
Frame rate mode             : Constant
Frame rate                  : 24.000 FPS
Color space                 : YUV
Chroma subsampling          : 4:2:0
Bit depth                   : 8 bits
Scan type                   : Progressive
Bits/(Pixel*Frame)          : 0.140
Stream size                 : 4.47 GiB (72%)
Title                       : Campe0nes.M1O8O.mkv
Writing library             : x264 core 142
Encoding settings           : cabac=1 / ref=1 / deblock=1:-1:-1 / analyse=0x3:0 / me=hex / subme=5 / psy=0 / mixed_ref=0 / me_range=16 / chroma_me=1 / trellis=0 / 8x8dct=1 / cqm=0 / deadzone=21,11 / fast_pskip=0 / chroma_qp_offset=0 / threads=16 / lookahead_threads=4 / sliced_threads=0 / nr=0 / decimate=1 / interlaced=0 / bluray_compat=0 / constrained_intra=0 / bframes=2 / b_pyramid=0 / b_adapt=1 / b_bias=0 / direct=1 / weightb=0 / open_gop=0 / weightp=0 / keyint=24 / keyint_min=13 / scenecut=40 / intra_refresh=0 / rc=crf / mbtree=0 / crf=22.0 / qcomp=0.60 / qpmin=0 / qpmax=69 / qpstep=4 / ip_ratio=1.40 / pb_ratio=1.30 / aq=1:1.00
Language                    : Spanish
Default                     : Yes
Forced                      : No
Color range                 : Limited
Color primaries             : BT.709
Transfer characteristics    : BT.709
Matrix coefficients         : BT.709

Audio #1
ID                          : 2
Format                      : DTS
Format/Info                 : Digital Theater Systems
Mode                        : 16
Format settings, Endianness : Big
Codec ID                    : A_DTS
Duration                    : 2 h 4 min
Bit rate mode               : Constant
Bit rate                    : 1 509 kb/s
Channel(s)                  : 6 channels
Channel positions           : Front: L C R, Side: L R, LFE
Sampling rate               : 48.0 kHz
Frame rate                  : 93.750 FPS (512 SPF)
Bit depth                   : 24 bits
Compression mode            : Lossy
Stream size                 : 1.31 GiB (21%)
Title                       : eXvagos1.com / d22
Language                    : Spanish
Default                     : Yes
Forced                      : No

Audio #2
ID                          : 3
Format                      : AC-3
Format/Info                 : Audio Coding 3
Format settings, Endianness : Big
Codec ID                    : A_AC3
Duration                    : 2 h 4 min
Bit rate mode               : Constant
Bit rate                    : 448 kb/s
Channel(s)                  : 6 channels
Channel positions           : Front: L C R, Side: L R, LFE
Sampling rate               : 48.0 kHz
Frame rate                  : 31.250 FPS (1536 SPF)
Bit depth                   : 16 bits
Compression mode            : Lossy
Stream size                 : 398 MiB (6%)
Title                       : eXvagos1.com / d22
Language                    : Spanish
Service kind                : Complete Main
Default                     : No
Forced                      : No

Text #1
ID                          : 4
Format                      : UTF-8
Codec ID                    : S_TEXT/UTF8
Codec ID/Info               : UTF-8 Plain Text
Duration                    : 1 h 57 min
Bit rate                    : 74 b/s
Count of elements           : 1798
Stream size                 : 64.4 KiB (0%)
Title                       : eXvagos1.com / d22
Language                    : Spanish
Default                     : No
Forced                      : No

Text #2
ID                          : 5
Format                      : UTF-8
Codec ID                    : S_TEXT/UTF8
Codec ID/Info               : UTF-8 Plain Text
Duration                    : 1 h 57 min
Bit rate                    : 61 b/s
Count of elements           : 1571
Stream size                 : 52.8 KiB (0%)
Title                       : eXvagos1.com / d22
Language                    : English
Default                     : No
Forced                      : No

Menu
00:00:00.000                : en:00:00:00.000
00:08:06.000                : en:00:08:06.000
00:18:35.667                : en:00:18:35.667
00:29:19.708                : en:00:29:19.708
00:38:06.125                : en:00:38:06.125
00:51:25.542                : en:00:51:25.542
01:01:01.958                : en:01:01:01.958
01:11:01.000                : en:01:11:01.000
01:24:40.667                : en:01:24:40.667
01:31:17.542                : en:01:31:17.542
01:38:03.333                : en:01:38:03.333
01:51:20.125                : en:01:51:20.125



[/SPOILER]



Descomprimir con winrar, 7zip o programa similar.







Marco, un entrenador profesional de baloncesto, se encuentra un día, en medio de una crisis personal, entrenando a un equipo compuesto por personas con discapacidad intelectual. Lo que comienza como un problema se acaba convirtiendo en una lección de vida.

Premios:

2018: 3 Premios Goya: Mejor película, actor revelación (Vidal) y canción. 11 nom.
2018: Premios Feroz: Mejor comedia. 4 nominaciones
2018: Premios Forqué: Mejor película y Premio al cine en educación en valores
2019: Premios Platino: 5 nominaciones incluyendo mejor película, dirección y guion











Descarga todo de un servidor FREE + 1 parte NO FREE

Para descargar tener abierto JDownloader v2, Mipony o programa similar














[HIDE]
Código: You are not allowed to view links. Register or Login

https://safelinking.net/L4n5woe

[/HIDE]


Visita mi perfil para ver todos mis aportes





Conectado SAT

  • Administrator
  • Gran Experto
  • *****
  • Mensajes: 4899
Re:Campeones (2018)[Varias Calidades][Castellano][Comedia/Drama][VS]
« Respuesta #4 en: Abril 10, 2019, 04:04:55 pm »
Me gusta esta peli, gracias.

Conectado Medea

  • Global Moderator
  • Master
  • *****
  • Mensajes: 7051
  • En Inverness,con Jamie freser
Re:Campeones (2018)[Varias Calidades][Castellano][Comedia/Drama][VS]
« Respuesta #5 en: Abril 10, 2019, 04:41:49 pm »
« Última modificación: Abril 10, 2019, 04:44:05 pm por Medea »
You are not allowed to view links. Register or Login

Tags:
Tags:

 


SMF 2.0.11 | SMF © 2015, Simple Machines
Paginas Afiliadas
Twitter - FaceBook - Daraxblog
Designed by Smf Personal