Bienvenido a Tecnohackers

Tecnohackers » Cultura y Ocio » Mundo Cine » Series
 » 

New Worlds (2014)[Miniserie][MicroHD 720p][Castellano][Histórico][4/4][800MB]



Autor Tema: New Worlds (2014)[Miniserie][MicroHD 720p][Castellano][Histórico][4/4][800MB]  (Leído 270 veces)

Desconectado parrix

  • Asiduo
  • *
  • Mensajes: 77









Título original New Worlds
Año 2014
Duración 200 min.
País Reino Unido
Dirección Charles Martin
Guion Martine Brant, Peter Flannery
Música Harry Escott
Fotografía David Raedeker
Reparto Sean Baker,  Pip Carter,  Phil Cheadle,  Holli Dempsey,  Joe Dempsie,  Jamie Dornan, Alice Englert,  Michael Maloney,  Freya Mavor,  Jeremy Northam,  Guy Henry, Amy Marston,  Michael McElhatton,  Tom Payne,  Elliot Reeve,  Malcolm Storry, Tom Beard,  Morfydd Clark,  Bill Fellows,  Rupert Holliday-Evans
Productora Channel 4 / Company Pictures / Power
Género Drama | Histórico. Siglo XVII. Secuela. Miniserie de TV





Calidad: MicroHD 720p
Formato: MKV
Resolución: 1280x520p
Video: AVC x264
Audio: MP3 Castellano
Tamaño: 800 MB
Subtítulos: Forzados Español



MediaInfo:

[SPOILER]

Código: You are not allowed to view links. Register or Login

General
Unique ID                                : 227524951126307331595905361315119181393 (0xAB2BB62E7E6C9521BF6FE384A65B2E51)
Complete name                            : /New.W0rlds.1x01.72O.mkv
Format                                   : Matroska
Format version                           : Version 4
File size                                : 836 MiB
Duration                                 : 50 min 25 s
Overall bit rate                         : 2 318 kb/s
Encoded date                             : UTC 2019-03-24 10:57:50
Writing application                      : mkvmerge v8.3.0 ('Over the Horizon') 64bit
Writing library                          : libebml v1.3.1 + libmatroska v1.4.2

Video
ID                                       : 1
Format                                   : AVC
Format/Info                              : Advanced Video Codec
Format profile                           : High@L4.1
Format settings                          : CABAC / 5 Ref Frames
Format settings, CABAC                   : Yes
Format settings, ReFrames                : 5 frames
Codec ID                                 : V_MPEG4/ISO/AVC
Duration                                 : 50 min 23 s
Bit rate                                 : 2 125 kb/s
Width                                    : 1 280 pixels
Height                                   : 520 pixels
Display aspect ratio                     : 2.462
Frame rate mode                          : Constant
Frame rate                               : 25.000 FPS
Color space                              : YUV
Chroma subsampling                       : 4:2:0
Bit depth                                : 8 bits
Scan type                                : Progressive
Bits/(Pixel*Frame)                       : 0.128
Stream size                              : 766 MiB (92%)
Writing library                          : x264 core 142 r2409 d6b4e63
Encoding settings                        : cabac=1 / ref=5 / deblock=1:0:0 / analyse=0x3:0x113 / me=umh / subme=8 / psy=1 / psy_rd=1.00:0.00 / mixed_ref=1 / me_range=16 / chroma_me=1 / trellis=1 / 8x8dct=1 / cqm=0 / deadzone=21,11 / fast_pskip=1 / chroma_qp_offset=-2 / threads=12 / lookahead_threads=2 / sliced_threads=0 / nr=0 / decimate=1 / interlaced=0 / bluray_compat=0 / constrained_intra=0 / bframes=3 / b_pyramid=2 / b_adapt=2 / b_bias=0 / direct=3 / weightb=1 / open_gop=0 / weightp=2 / keyint=250 / keyint_min=25 / scenecut=40 / intra_refresh=0 / rc_lookahead=50 / rc=crf / mbtree=1 / crf=18.0 / qcomp=0.60 / qpmin=0 / qpmax=69 / qpstep=4 / ip_ratio=1.40 / aq=1:1.00
Language                                 : English
Default                                  : Yes
Forced                                   : No
Color range                              : Limited
Matrix coefficients                      : BT.709

Audio
ID                                       : 2
Format                                   : MPEG Audio
Format version                           : Version 1
Format profile                           : Layer 3
Codec ID                                 : A_MPEG/L3
Codec ID/Hint                            : MP3
Duration                                 : 50 min 25 s
Bit rate mode                            : Constant
Bit rate                                 : 192 kb/s
Channel(s)                               : 2 channels
Sampling rate                            : 44.1 kHz
Frame rate                               : 38.281 FPS (1152 SPF)
Compression mode                         : Lossy
Stream size                              : 69.2 MiB (8%)
Title                                    : Castellano
Writing library                          : LAME3.98r
Encoding settings                        : -m s -V 4 -q 3 -lowpass 18.6 -b 192
Language                                 : Spanish
Default                                  : Yes
Forced                                   : No

Text
ID                                       : 3
Format                                   : UTF-8
Codec ID                                 : S_TEXT/UTF8
Codec ID/Info                            : UTF-8 Plain Text
Duration                                 : 40 min 27 s
Bit rate                                 : 4 b/s
Count of elements                        : 29
Stream size                              : 1.45 KiB (0%)
Title                                    : Forzados
Language                                 : Spanish
Default                                  : Yes
Forced                                   : No



[/SPOILER]



Descomprimir con winrar, 7zip o programa similar.







La historia se centra después de los acontecimientos de The Devil’s Whore, en 1680, mientras que los colonos de Nueva Inglaterra pasan por grandes dificultades liberarse del control de la monarquía inglesa. Angelica (Eve Best recupera el papel interpretada por Andrea Riseborough) ahora es la condesa de Abbington, que quiere proteger a su hija Beth (Freya Mavor) de un país que está a punto de zozobrar de nuevo en el caos. Además conoceremos a Abe (Jamie Dornan), una persona idealista fuera de la ley, que va a inmiscuirse en su mundo y a pedirle quedarse allí mientras que las libertades ganadas por su padre durante la guerra civil son destruidas.










Descarga todo de un servidor FREE + 1 parte NO FREE

Para descargar tener abierto JDownloader v2, Mipony o programa similar














[HIDE]
Código: You are not allowed to view links. Register or Login

https://safelinking.net/ecjDPiX

[/HIDE]


Visita mi perfil para ver todos mis aportes





Tags:
Tags:

 


SMF 2.0.11 | SMF © 2015, Simple Machines
Paginas Afiliadas
Twitter - FaceBook - Daraxblog
Designed by Smf Personal