Bienvenido a Tecnohackers

Tecnohackers » Cultura y Ocio » Mundo Cine » Joyas del Cine
 » 

47 Ronin [2013] 3D H-SBS 1080p [Ing-Lat]



Autor Tema: 47 Ronin [2013] 3D H-SBS 1080p [Ing-Lat]  (Leído 191 veces)

Desconectado campitos

  • Gran Colaborador
  • ****
  • Mensajes: 1789
47 Ronin [2013] 3D H-SBS 1080p [Ing-Lat]
« en: Octubre 10, 2017, 07:52:40 pm »


TITULO ORIGINAL: 47 Ronin
ANO 2013
DURACION: 119 min.
PAIS: EE.UU.
DIRECTOR: Carl Erik Rinsch
GUY: Hossein Amini, Chris Morgan
INFORME: Keanu Reeves, Hiroyuki Sanada, Kou Shibasaki, Cary-Hiroyuki Tagawa, Rinko Kikuchi, Tadanobu Asano, Togo Igawa
PRODUCTORA: Universal Pictures / H2F Entertainment / Stuber Productions
GENERO: Accion. Drama. Fantastico | Samurais feudales de Japon. Siglo XVIII. Venganza. 3-D
Código: You are not allowed to view links. Register or Login
http://www.imdb.com/title/tt1335975/Sinopsis: Basado en una leyenda japonesa. Siglo XVIII. Kai (Keanu Reeves) es un paria que se une a Oishi (Hiroyuki Sanada), el jefe de los 47 Ronin. Su objetivo es vengarse del traidor que mato' a su amo y condenarlos al exilio. Para recuperar el honor perdido, los guerreros se embarcan en una aventura que los obligo' a superar duras pruebas.
Trailer

Código: You are not allowed to view links. Register or Login
General
Format Matroska
Format version Version 2
File size 13.9 GiB
Duration 1h 58mn
Overall bit rate 16.7 Mbps
Encoded date UTC 2014-03-23 13:46:51
Writing application mkvmerge v5.7.0 (The Whirlwind) built on Jul  8 2012 20:08:51
Writing library libebml v1.2.3 + libmatroska v1.3.0
Video
ID 1
Format AVC
Format/Info Advanced Video Codec
Format profile High@L4.1
Format settings, CABAC Yes
Format settings, ReFrames 4 frames
Muxing mode Header stripping
Codec ID V_MPEG4/ISO/AVC
Duration 1h 58mn
Bit rate 13.2 Mbps
Width 1 920 pixels
Height 1 080 pixels
Display aspect ratio 16:9
Frame rate mode Constant
Frame rate                               : 23.976 fps
Color space                              : YUV
Chroma subsampling                       : 4:2:0
Bit depth                                : 8 bits
Scan type                                : Progressive
Bits/(Pixel*Frame)                       : 0.266
Stream size                              : 10.7 GiB (77%)
Writing library                          : x264 core 140 r2377 1ca7bb9
Language                                 : English
Default                                  : Yes
Forced                                   : No
Audio #1
ID                                       : 2
Format                                   : DTS
Format/Info                              : Digital Theater Systems
Mode                                     : 16
Format settings, Endianness              : Big
Muxing mode                              : Header stripping
Codec ID                                 : A_DTS
Duration                                 : 1h 58mn
Bit rate mode                            : Constant
Bit rate                                 : 768 Kbps
Channel(s)                               : 6 channels
Channel positions                        : Front: L C R, Side: L R, LFE
Sampling rate                            : 48.0 KHz
Bit depth                                : 24 bits
Compression mode                         : Lossy
Stream size                              : 652 MiB (5%)
Title                                    : DTS 5.1
Language                                 : Spanish
Default                                  : Yes
Forced                                   : No
Audio #2
ID                                       : 3
Format                                   : AC-3
Format/Info                              : Audio Coding 3
Mode extension                           : CM (complete main)
Format settings, Endianness              : Big
Muxing mode                              : Header stripping
Codec ID                                 : A_AC3
Duration                                 : 1h 58mn
Bit rate mode                            : Constant
Bit rate                                 : 640 Kbps
Channel(s)                               : 6 channels
Channel positions                        : Front: L C R, Side: L R, LFE
Sampling rate                            : 48.0 KHz
Bit depth                                : 16 bits
Compression mode                         : Lossy
Stream size                              : 544 MiB (4%)
Title                                    : AC3 5.1
Language                                 : Spanish
Default                                  : No
Forced                                   : No
Audio #3
ID                                       : 4
Format                                   : AC-3
Format/Info                              : Audio Coding 3
Mode extension                           : CM (complete main)
Format settings, Endianness              : Big
Muxing mode                              : Header stripping
Codec ID                                 : A_AC3
Duration                                 : 1h 58mn
Bit rate mode                            : Constant
Bit rate                                 : 640 Kbps
Channel(s)                               : 6 channels
Channel positions                        : Front: L C R, Side: L R, LFE
Sampling rate                            : 48.0 KHz
Bit depth                                : 16 bits
Compression mode                         : Lossy
Stream size                              : 544 MiB (4%)
Title                                    : AC3 5.1
Language                                 : English
Default                                  : No
Forced                                   : No
Audio #4
ID                                       : 5
Format                                   : DTS
Format/Info                              : Digital Theater Systems
Mode                                     : 16
Format settings, Endianness              : Big
Muxing mode                              : Header stripping
Codec ID                                 : A_DTS
Duration                                 : 1h 58mn
Bit rate mode                            : Constant
Bit rate                                 : 1 509 Kbps
Channel(s)                               : 6 channels
Channel positions                        : Front: L C R, Side: L R, LFE
Sampling rate                            : 48.0 KHz
Bit depth                                : 24 bits
Compression mode                         : Lossy
Stream size                              : 1.25 GiB (9%)
Title                                    : DTS 5.1
Language                                 : English
Default                                  : No
Forced                                   : No
Text #1
ID                                       : 6
Format                                   : VobSub
Muxing mode                              : zlib
Codec ID                                 : S_VOBSUB
Codec ID/Info                            : The same subtitle format used on DVDs
Title                                    : Forzados
Language                                 : Spanish
Default                                  : Yes
Forced                                   : No
Text #2
ID                                       : 7
Format                                   : VobSub
Muxing mode                              : zlib
Codec ID                                 : S_VOBSUB
Codec ID/Info                            : The same subtitle format used on DVDs
Title                                    : Completos
Language                                 : Spanish
Default                                  : No
Forced                                   : No





Buy Premium Account To Get High Speed Download
You are not allowed to view links. Register or Login

Tags: Ronin 2013 SBS 
Tags: Ronin 2013 SBS 

 


SMF 2.0.11 | SMF © 2015, Simple Machines
Paginas Afiliadas
Twitter - FaceBook - Daraxblog
Designed by Smf Personal