Bienvenido a Tecnohackers

Tecnohackers » Cultura y Ocio » Mundo Cine » Joyas del Cine
 » 

Hotel Transylvania - Saga



Autor Tema: Hotel Transylvania - Saga  (Leído 580 veces)

Desconectado campitos

  • Gran Colaborador
  • ****
  • Mensajes: 1789
Hotel Transylvania - Saga
« en: Mayo 30, 2017, 05:10:23 am »


TITULO ORIGINAL: Hotel Transylvania
ANO: 2012
DURACION: 91 min.
PAIS: USA
DIRECTOR: Genndy Tartakovsky
GUION: David I. Stern, Dan Hageman, Kevin Hageman
REPARTO: Animation
PRODUCTORA: Sony Pictures Animation
GENERO: Animacion. Comedia. Fantastico | Monstruos. Comedia de terror. 3-D
Código: You are not allowed to view links. Register or Login
http://www.imdb.com/title/tt0837562/PREMIOS: 2012: Premios Annie: 8 nominaciones, incluyendo mejor pelicula
2012: Globos de Oro: Nominada a Mejor pelicula de animacion
Sinopsis: Desde su nacimiento, Mavis vive en el lujoso hotel Transylvania, que fue creado para proteger a los monstruos de la amenaza de los seres humanos. Cuando Mavis esta' a punto de cumplir la mayoria de edad (118 anos), su padre, el conde Dracula, le prepara una fiesta a la que acuden los mejores amigos de la familia: desde Frankenstein al Hombre Invisible o la Momia; pero tambien asiste a la celebracion un hombre que se enamora de Mavis.
Trailer

Código: You are not allowed to view links. Register or Login
General
Format : Matroska
Format version: Version 2
File size : 8.33 GiB
Duration : 1h 31mn
Overall bit rate: 13.0 Mbps
Encoded date: UTC 2013-01-13 22:11:05
Writing application  : mkvmerge v5.7.0 ('The Whirlwind') built on Jul  8 2012 20:08:51
Writing library: libebml v1.2.3 + libmatroska v1.3.0
Video
ID: 1
Format : AVC
Format/Info  Advanced Video Codec
Format profile: High@L4.1
Format settings, CABAC  : Yes
Format settings, ReFrames : 3 frames
Codec ID  V_MPEG4/ISO/AVC
Duration : 1h 31mn
Bit rate : 9 982 Kbps
Width 1 920 pixels
Height : 1 036 pixels
Display aspect ratio 1.85:1
Frame rate mode                          : Constant
Frame rate: 23.976 fps
Color space : YUV
Chroma subsampling : 4:2:0
Bit depth: 8 bits
Scan type : Progressive
Bits/(Pixel*Frame) : 0.209
Stream size : 6.38 GiB (77%)
Writing library : x264 core
Language: English
Default : Yes
Forced  : No
Color primaries : BT.709
Transfer characteristics: BT.709
Matrix coefficients : BT.709
Audio #1
ID : 2
Format : AC-3
Format/Info: Audio Coding 3
Mode extension : CM (complete main)
Format settings, Endianness     : Big
Codec ID  : A_AC3
Duration   : 1h 31mn
Bit rate mode : Constant
Bit rate : 640 Kbps
Channel(s) : 6 channels
Channel positions  : Front: L C R, Side: L R, LFE
Sampling rate: 48.0 KHz
Bit depth : 16 bits
Compression mode : Lossy
Stream size 419 MiB (5%)
Title : AC3 5.1
Language : Spanish
Default : Yes
Forced  : No
Audio #2
ID   : 3
Format                                   : AC-3
Format/Info                              : Audio Coding 3
Mode extension                           : CM (complete main)
Format settings, Endianness              : Big
Codec ID                                 : A_AC3
Duration                                 : 1h 31mn
Bit rate mode                            : Constant
Bit rate                                 : 640 Kbps
Channel(s)                               : 6 channels
Channel positions                        : Front: L C R, Side: L R, LFE
Sampling rate                            : 48.0 KHz
Bit depth                                : 16 bits
Compression mode                         : Lossy
Stream size                              : 419 MiB (5%)
Title                                    : AC3 5.1
Language                                 : English
Default                                  : No
Forced                                   : No
Audio #3
ID                                       : 4
Format                                   : DTS
Format/Info                              : Digital Theater Systems
Mode                                     : 16
Format settings, Endianness              : Big
Codec ID                                 : A_DTS
Duration                                 : 1h 31mn
Bit rate mode                            : Constant
Bit rate                                 : 1 509 Kbps
Channel(s)                               : 6 channels
Channel positions                        : Front: L C R, Side: L R, LFE
Sampling rate                            : 48.0 KHz
Bit depth                                : 24 bits
Compression mode                         : Lossy
Stream size                              : 988 MiB (12%)
Title                                    : DTS 5.1
Language                                 : English
Default                                  : No
Forced                                   : No
Text #1
ID                                       : 5
Format                                   : UTF-8
Codec ID                                 : S_TEXT/UTF8
Codec ID/Info                            : UTF-8 Plain Text
Language                                 : Spanish
Default                                  : Yes
Forced                                   : No
Text #2
ID                                       : 6
Format                                   : UTF-8
Codec ID                                 : S_TEXT/UTF8
Codec ID/Info                            : UTF-8 Plain Text
Language                                 : Spanish
Default                                  : No
Forced                                   : No
Text #3
ID                                       : 7
Format                                   : UTF-8
Codec ID                                 : S_TEXT/UTF8
Codec ID/Info                            : UTF-8 Plain Text
Language                                 : English
Default                                  : No
Forced                                   : No






Código: You are not allowed to view links. Register or Login
https://filejoker.net/si56yzuzrxao/hotd3df2vc.part01.rar
https://filejoker.net/vtvh5ccn8w24/hotd3df2vc.part02.rar
https://filejoker.net/1zqi8erkr7gv/hotd3df2vc.part03.rar
https://filejoker.net/m9654ixxxbw4/hotd3df2vc.part04.rar
https://filejoker.net/buo0mhe307k5/hotd3df2vc.part05.rar
https://filejoker.net/oyo2uj3pc9b3/hotd3df2vc.part06.rar
https://filejoker.net/wcfc0jjz4f4i/hotd3df2vc.part07.rar
https://filejoker.net/bew6ilw13kl7/hotd3df2vc.part08.rar
https://filejoker.net/weccv78iav48/hotd3df2vc.part09.rar
https://filejoker.net/td5nz9lhsjv4/hotd3df2vc.part10.rar
https://filejoker.net/tugxc7hp1qin/hotd3df2vc.part11.rar
https://filejoker.net/mwvt1ekn7y83/hotd3df2vc.part12.rar
https://filejoker.net/47v4d9uxirqy/hotd3df2vc.part13.rar
https://filejoker.net/wnf31u7rhsik/hotd3df2vc.part14.rar

Desconectado campitos

  • Gran Colaborador
  • ****
  • Mensajes: 1789
Hotel Transylvania 2 [2015][3D H-SBS 1080p]
« Respuesta #1 en: Mayo 30, 2017, 06:00:32 am »


Titulo original: Hotel Transylvania 2
Ano: 2015
Duracion: 89 min.
Pais:  Estados Unidos
Director: Genndy Tartakovsky
Guion: Adam Sandler, Robert Smigel
Musica: Mark Mothersbaugh
Fotografia: Animation
Reparto: Animation
Productora: Columbia Pictures / Sony Pictures Animation / Sony Pictures Digital
Genero: Animacion. Comedia. Fantastico | Monstruos. Secuela. 3-D
Sinopsis: Todo parece mejorar en el Hotel Transilvania. La rigida norma establecida por Dracula de �solo para monstruos� se ha suprimido y se aceptan tambien huespedes humanos. Lo que preocupa al conde es que que su adorable nieto Dennis, medio humano y medio vampiro, no de senal alguna de vampirismo. Aprovechando que Mavis ha ido a visitar a sus suegros humanos, Dracula recluta a sus amigos Frank, Murray, Wayne y Griffin para hacer que Dennis pase por un campamento de �entrenamiento de monstruos�. Lo que ignoran es que Vlad, el grunon padre de Dracula, esta a punto de llegar al hotel. Y cuando descubra que su bisnieto no es de sangre pura y que los humanos pueden frecuentar el establecimiento las cosas se complicaran. Secuela de Hotel Transilvania (2012).
Código: You are not allowed to view links. Register or Login
http://www.imdb.com/title/tt2510894/Trailer

Código: You are not allowed to view links. Register or Login
General
Format : Matroska
Format version : Version 4 / Version 2
File size : 6.61 GiB
Duration : 1h 29mn
Overall bit rate : 10.6 Mbps
Encoded date : UTC 2015-12-28 21:12:10
Writing application : mkvmerge v7.1.0 (Good Love) 64bit built on Jul 27 2014 13:06:55
Writing library : libebml v1.3.0 + libmatroska v1.4.1
Video
ID : 1
Format : AVC
Format/Info : Advanced Video Codec
Format profile : High@L4.1
MultiView_Count : 2
MultiView_Layout : Side by Side (left eye first)
Format settings, CABAC : Yes
Format settings, ReFrames : 4 frames
Codec ID : V_MPEG4/ISO/AVC
Duration : 1h 29mn
Bit rate : 8 000 Kbps
Width : 1 920 pixels
Height : 1 080 pixels
Display aspect ratio : 16:9
Frame rate mode : Constant
Frame rate : 23.976 fps
Color space : YUV
Chroma subsampling : 4:2:0
Bit depth : 8 bits
Scan type : Progressive
Bits/(Pixel*Frame) : 0.161
Stream size : 4.86 GiB (74%)
Writing library : x264 core 148 r2638 7599210
Language : English
Default : Yes
Forced : No
Audio #1
ID : 2
Format : AC-3
Format/Info : Audio Coding 3
Mode extension : CM (complete main)
Format settings, Endianness : Big
Codec ID : A_AC3
Duration : 1h 29mn
Bit rate mode : Constant
Bit rate : 640 Kbps
Channel(s) : 6 channels
Channel positions : Front: L C R, Side: L R, LFE
Sampling rate : 48.0 KHz
Bit depth : 16 bits
Compression mode : Lossy
Stream size : 409 MiB (6%)
Title : AC3 5.1 Bluray
Language : Spanish
Default : Yes
Forced : No
Audio #2
ID : 3
Format : AC-3
Format/Info : Audio Coding 3
Mode extension : CM (complete main)
Format settings, Endianness : Big
Codec ID : A_AC3
Duration : 1h 29mn
Bit rate mode : Constant
Bit rate : 448 Kbps
Channel(s) : 6 channels
Channel positions : Front: L C R, Side: L R, LFE
Sampling rate : 48.0 KHz
Bit depth : 16 bits
Compression mode : Lossy
Stream size : 286 MiB (4%)
Title : AC3 5.1
Language : English
Default : No
Forced : No
Audio #3
ID : 4
Format : DTS
Format/Info : Digital Theater Systems
Mode : 16
Format settings, Endianness : Big
Codec ID : A_DTS
Duration : 1h 29mn
Bit rate mode : Constant
Bit rate : 1 509 Kbps
Channel(s) : 6 channels
Channel positions : Front: L C R, Side: L R, LFE
Sampling rate : 48.0 KHz
Bit depth : 24 bits
Compression mode : Lossy
Stream size : 964 MiB (14%)
Title : DTS 5.1
Language : English
Default : No
Forced : No
Text
ID : 5
Format : UTF-8
Codec ID : S_TEXT/UTF8
Codec ID/Info : UTF-8 Plain Text
Language : Spanish
Default : No
Forced : No







Código: You are not allowed to view links. Register or Login
https://filejoker.net/n009eya6gka6/ht3df56rf.part1.rar
https://filejoker.net/rx7raip33r07/ht3df56rf.part2.rar
https://filejoker.net/vvjtrqhfr6r9/ht3df56rf.part3.rar
https://filejoker.net/w4wq7fff6vtp/ht3df56rf.part4.rar
https://filejoker.net/bwfs18ivtlla/ht3df56rf.part5.rar
https://filejoker.net/i2wpfxfvuq11/ht3df56rf.part6.rar
https://filejoker.net/1a0bovblch26/ht3df56rf.part7.rar
https://filejoker.net/fq9zf88yog43/ht3df56rf.part8.rar

Tags:
Tags:

 


SMF 2.0.11 | SMF © 2015, Simple Machines
Paginas Afiliadas
Twitter - FaceBook - Daraxblog
Designed by Smf Personal