Bienvenido a Tecnohackers

Tecnohackers » Cultura y Ocio » Mundo Cine » Joyas del Cine
 » 

X-Men - SAGA



Autor Tema: X-Men - SAGA  (Leído 208 veces)

Desconectado campitos

  • Gran Colaborador
  • ****
  • Mensajes: 1789
X-Men - SAGA
« en: Marzo 20, 2016, 05:05:30 pm »


Titulo original X-Men
Ano 2000
Duracion 97 min.
Pais Estados Unidos
Director Bryan Singer
Guion David Hayter (Historia: Tom DeSanto, Bryan Singer. Comic: Stan Lee)
Musica Michael Kamen
Fotografia Newton Thomas Sigel
Reparto Hugh Jackman, Patrick Stewart, Ian McKellen, Anna Paquin, Halle Berry, Famke Janssen, Bruce Davison, James Marsden, Rebecca Romijn-Stamos, Tyler Mane, Ray Park, Sumela Kay, Shawn Ashmore, Katrina Florece, Alex Burton, Shawn Roberts, Stan Lee
Productora 20th Century Fox / Marvel Entertainment Group
Genero Ciencia ficcion. Fantastico. Accion. Thriller | Superheroes. Comic. Marvel Comics
Sinopsis En un futuro cercano, la humanidad comienza a ver aparecer una nueva raza; los mutantes. Dotados de extranos y variados poderes, estan agrupados en dos bandos: los que abogan por la integracion y el entendimiento con la humanidad, encabezados por el doctor Charles Xavier, y los que buscan el enfrentamiento con una raza que consideran inferior y que les odia, dirigidos por Magnus, alias Magneto, un peligroso mutante con extraordinarios poderes

Código: You are not allowed to view links. Register or Login
General
X-Men (2000) [FULL 1080p Dual].mkv
Format : Matroska
Format version : Version 4 / Version 2
File size : 2.73 GiB
Duration : 1h 44mn
Overall bit rate : 3 746 Kbps
Movie name : X-Men (2000) [FULL 1080p Dual]
Encoded date : UTC 2014-03-04 21:53:39
Writing application : mkvmerge v6.5.0 (Isnt she lovely) built on Oct 20 2013 12:50:05
Writing library : libebml v1.3.0 + libmatroska v1.4.1
Video
ID : 1
Format : AVC
Format/Info : Advanced Video Codec
Format profile : Main@L4.0
Format settings, CABAC : Yes
Format settings, ReFrames : 1 frame
Format settings, GOP : M=1, N=24
Codec ID : V_MPEG4/ISO/AVC
Bit rate : 2 903 Kbps
Width : 1 920 pixels
Height : 1 080 pixels
Display aspect ratio : 16:9
Frame rate mode : Variable
Original frame rate : 23.976 fps
Color space : YUV
Chroma subsampling : 4:2:0
Bit depth : 8 bits
Scan type : Progressive
Writing library : x264 core
Default : Yes
Forced : No
Color primaries : BT.709
Transfer characteristics : BT.709
Matrix coefficients : BT.709
Audio #1
ID : 2
Format : AC-3
Format/Info : Audio Coding 3
Mode extension : CM (complete main)
Format settings, Endianness : Big
Codec ID : A_AC3
Duration : 1h 44mn
Bit rate mode : Constant
Bit rate : 448 Kbps
Channel count : 6 channels
Channel positions : Front: L C R, Side: L R, LFE
Sampling rate : 48.0 KHz
Bit depth : 16 bits
Compression mode : Lossy
Stream size : 334 MiB (12%)
Language : Spanish
Default : Yes
Forced : No
Audio #2
ID : 3
Format : AC-3
Format/Info : Audio Coding 3
Mode extension : CM (complete main)
Format settings, Endianness : Big
Codec ID : A_AC3
Duration : 1h 44mn
Bit rate mode : Constant
Bit rate : 320 Kbps
Channel count : 6 channels
Channel positions : Front: L C R, Side: L R, LFE
Sampling rate : 44.1 KHz
Bit depth : 16 bits
Compression mode : Lossy
Stream size : 239 MiB (9%)
Language : English
Default : No
Forced : No
Text #1
ID : 4
Format : VobSub
Muxing mode : zlib
Codec ID : S_VOBSUB
Codec ID/Info : The same subtitle format used on DVDs
Language : Spanish
Default : No
Forced : No
Text #2
ID : 5
Format : VobSub
Muxing mode : zlib
Codec ID : S_VOBSUB
Codec ID/Info : The same subtitle format used on DVDs
Language : English
Default : No
Forced : No
Text #3
ID : 6
Format : UTF-8
Codec ID : S_TEXT/UTF8
Codec ID/Info : UTF-8 Plain Text
Title : spanish
Default : Yes
Forced : No









Código: You are not allowed to view links. Register or Login
[url]https://www.bigfile.to/file/94mGntmc3mct/xme01hd.part01.rar[/url]
[url]https://www.bigfile.to/file/qrbgW4a7wYht/xme01hd.part02.rar[/url]
[url]https://www.bigfile.to/file/PGz8ChBdZWDT/xme01hd.part03.rar[/url]
[url]https://www.bigfile.to/file/JvWbXH7d2B9C/xme01hd.part04.rar[/url]
[url]https://www.bigfile.to/file/txEgMMSq9d8e/xme01hd.part05.rar[/url]
[url]https://www.bigfile.to/file/QcFkuDg9VQAX/xme01hd.part06.rar[/url]
[url]https://www.bigfile.to/file/prmmkuKGFFDs/xme01hd.part07.rar[/url]
[url]https://www.bigfile.to/file/nuVjxrTUKrTN/xme01hd.part08.rar[/url]
[url]https://www.bigfile.to/file/VsRPag3rWwE7/xme01hd.part09.rar[/url]
[url]https://www.bigfile.to/file/NBb3T6Wee2Ej/xme01hd.part10.rar[/url]
[url]https://www.bigfile.to/file/vGWuzqYtkjXn/xme01hd.part11.rar[/url]
[url]https://www.bigfile.to/file/QXpdKsftC2kt/xme01hd.part12.rar[/url]

Desconectado campitos

  • Gran Colaborador
  • ****
  • Mensajes: 1789
X-Men 2 [2003][Full HD 1080]
« Respuesta #1 en: Marzo 20, 2016, 05:30:42 pm »


Titulo original X2
Ano 2003
Duracion 133 min.
Pais Estados Unidos
Director Bryan Singer
Guion Bryan Singer, Daniel P. Harris, Michael Dougherty (Personajes: Stan Lee)
Musica John Ottman
Fotografia Newton Thomas Sigel
Reparto Hugh Jackman, Ian McKellen, Patrick Stewart, Brian Cox, Famke Janssen, Halle Berry, Alan Cumming, Anna Paquin, Shawn Ashmore, James Marsden, Aaron Stanford, Rebecca Romijn-Stamos, Kelly Hu, Ty Olsson, Cotter Smith, Bruce Davison, Michael Reid MacKay, Daniel Cudmore
Productora 20th Century Fox
Genero Ciencia ficcion. Fantastico. Accion | Superheroes. Comic. Marvel Comics. Secuela
Sinopsis Los mutantes son seres humanos con alguna variacion genetica que les dota de caracteristicas especiales, lo que los convierte en la minoria mas perseguida del mundo. Dadas las circunstancia, el profesor Xavier crea una institucion que sirva de refugio a estos seres. En ella son preparados para aceptar y dominar sus poderes con el fin de luchar contra la intolerancia y la creciente histeria colectiva que amenaza su existencia. Pero el rechazo hacia los mutantes aumenta todavia mas cuando uno de ellos lanza un devastador ataque, lo que da lugar a una publica repulsa contra ellos y al reforzamiento de la Mutant Registration Act, cuyo lider, William Stryker, se propone eliminarlos atacando la escuela de X-Men.

Código: You are not allowed to view links. Register or Login
General
X-Men 2 (2003) [FULL 1080p Dual].mkv
Format : Matroska
Format version : Version 4 / Version 2
File size : 3.51 GiB
Duration : 2h 13mn
Overall bit rate : 3 757 Kbps
Movie name : X-Men 2 (2003) [FULL 1080p Dual]
Encoded date : UTC 2014-03-04 23:58:06
Writing application : mkvmerge v6.5.0 (Isnt she lovely) built on Oct 20 2013 12:50:05
Writing library : libebml v1.3.0 + libmatroska v1.4.1
Video
ID : 1
Format : AVC
Format/Info : Advanced Video Codec
Format profile : Main@L4.0
Format settings, CABAC : Yes
Format settings, ReFrames : 1 frame
Codec ID : V_MPEG4/ISO/AVC
Bit rate : 2 915 Kbps
Width : 1 920 pixels
Height : 1 080 pixels
Display aspect ratio : 16:9
Frame rate mode : Variable
Original frame rate : 23.976 fps
Color space : YUV
Chroma subsampling : 4:2:0
Bit depth : 8 bits
Scan type : Progressive
Writing library : x264 core
Default : Yes
Forced : No
Color primaries : BT.709
Transfer characteristics : BT.709
Matrix coefficients : BT.709
Audio #1
ID : 2
Format : AC-3
Format/Info : Audio Coding 3
Mode extension : CM (complete main)
Format settings, Endianness : Big
Codec ID : A_AC3
Duration : 2h 13mn
Bit rate mode : Constant
Bit rate : 448 Kbps
Channel count : 6 channels
Channel positions : Front: L C R, Side: L R, LFE
Sampling rate : 48.0 KHz
Bit depth : 16 bits
Compression mode : Lossy
Stream size : 429 MiB (12%)
Language : Spanish
Default : Yes
Forced : No
Audio #2
ID : 3
Format : AC-3
Format/Info : Audio Coding 3
Mode extension : CM (complete main)
Format settings, Endianness : Big
Codec ID : A_AC3
Duration : 2h 13mn
Bit rate mode : Constant
Bit rate : 320 Kbps
Channel count : 6 channels
Channel positions : Front: L C R, Side: L R, LFE
Sampling rate : 44.1 KHz
Bit depth : 16 bits
Compression mode : Lossy
Stream size : 306 MiB (9%)
Language : English
Default : No
Forced : No
Text #1
ID : 4
Format : VobSub
Muxing mode : zlib
Codec ID : S_VOBSUB
Codec ID/Info : The same subtitle format used on DVDs
Language : Spanish
Default : No
Forced : No
Text #2
ID : 5
Format : VobSub
Muxing mode : zlib
Codec ID : S_VOBSUB
Codec ID/Info : The same subtitle format used on DVDs
Language : English
Default : No
Forced : No
Text #3
ID : 6
Format : UTF-8
Codec ID : S_TEXT/UTF8
Codec ID/Info : UTF-8 Plain Text
Default : Yes
Forced : No









Código: You are not allowed to view links. Register or Login
[url]https://www.bigfile.to/file/NkfW4q88vFBB/xme02hd.part01.rar[/url]
[url]https://www.bigfile.to/file/sqc48RDx2Usf/xme02hd.part02.rar[/url]
[url]https://www.bigfile.to/file/HewymHgdGJ7a/xme02hd.part03.rar[/url]
[url]https://www.bigfile.to/file/VgD9UfQT3hG9/xme02hd.part04.rar[/url]
[url]https://www.bigfile.to/file/fzqN8UZkAMzZ/xme02hd.part05.rar[/url]
[url]https://www.bigfile.to/file/ZVPCyAd8GMq8/xme02hd.part06.rar[/url]
[url]https://www.bigfile.to/file/vAbm42VC762n/xme02hd.part07.rar[/url]
[url]https://www.bigfile.to/file/w4QX5PtXznkR/xme02hd.part08.rar[/url]
[url]https://www.bigfile.to/file/jwyppv7UMmFg/xme02hd.part09.rar[/url]
[url]https://www.bigfile.to/file/tPxfSQyHBvmX/xme02hd.part10.rar[/url]
[url]https://www.bigfile.to/file/3ttqmsMnwErZ/xme02hd.part11.rar[/url]
[url]https://www.bigfile.to/file/rQF9pVqKXEJ9/xme02hd.part12.rar[/url]
[url]https://www.bigfile.to/file/D6UjwCbRzsxU/xme02hd.part13.rar[/url]
[url]https://www.bigfile.to/file/ttytJcQBpAw5/xme02hd.part14.rar[/url]
[url]https://www.bigfile.to/file/54ZvYFh3pKWk/xme02hd.part15.rar[/url]

Desconectado campitos

  • Gran Colaborador
  • ****
  • Mensajes: 1789
X-Men 3 [2006][Full HD 1080]
« Respuesta #2 en: Marzo 20, 2016, 05:55:54 pm »


Titulo original X3 (X-Men 3: The Last Stand)
Ano 2006
Duracion 105 min.
Pais Estados Unidos
Director Brett Ratner
Guion Zak Penn, Simon Kinberg
Musica John Powell
Fotografia Dante Spinotti
Reparto Hugh Jackman, Patrick Stewart, Ian McKellen, Halle Berry, Famke Janssen, Anna Paquin, Rebecca Romijn-Stamos, Kelsey Grammer, Vinnie Jones, James Marsden, Ellen Page, Daniel Cudmore, Shawn Ashmore, Ben Foster, Cameron Bright, Dania Ramirez, Aaron Stanford, Anthony Heald, Stan Lee, Ken Leung, Olivia Williams
Productora 20th Century Fox
Genero Ciencia ficcion. Fantastico. Accion. Thriller | Superheroes. Comic. Marvel Comics. Secuela
Sinopsis Ultimo capitulo de la trilogia cinematografica "X-Men". Un hecho amenaza con alterar el curso de la historia. Por primera vez, los mutantes pueden elegir: o conservar su singularidad, condenandose al aislamiento, o renunciar a sus poderes y convertirse en seres humanos normales. Los lideres de los mutantes sostienen puntos de vista antagonicos: mientras Charles Xavier aboga por la tolerancia, Magneto defiende la tesis de la supervivencia de los mas aptos.

Código: You are not allowed to view links. Register or Login
General
X-Men 3 (2006) [FULL 1080p Dual].mkv
Format : Matroska
Format version : Version 4 / Version 2
File size : 2.75 GiB
Duration : 1h 44mn
Overall bit rate : 3 784 Kbps
Movie name : X-Men: The Last Stand (2006) [FULL 1080p Dual]
Encoded date : UTC 2014-03-05 00:12:57
Writing application : mkvmerge v6.5.0 (Isnt she lovely) built on Oct 20 2013 12:50:05
Writing library : libebml v1.3.0 + libmatroska v1.4.1
Video
ID : 1
Format : AVC
Format/Info : Advanced Video Codec
Format profile : Main@L4.0
Format settings, CABAC : Yes
Format settings, ReFrames : 1 frame
Format settings, GOP : M=1, N=24
Codec ID : V_MPEG4/ISO/AVC
Bit rate : 2 940 Kbps
Width : 1 920 pixels
Height : 1 080 pixels
Display aspect ratio : 16:9
Frame rate mode : Variable
Original frame rate : 23.976 fps
Color space : YUV
Chroma subsampling : 4:2:0
Bit depth : 8 bits
Scan type : Progressive
Writing library : x264 core
Default : Yes
Forced : No
Color primaries : BT.709
Transfer characteristics : BT.709
Matrix coefficients : BT.709
Audio #1
ID : 2
Format : AC-3
Format/Info : Audio Coding 3
Mode extension : CM (complete main)
Format settings, Endianness : Big
Codec ID : A_AC3
Duration : 1h 44mn
Bit rate mode : Constant
Bit rate : 448 Kbps
Channel count : 6 channels
Channel positions : Front: L C R, Side: L R, LFE
Sampling rate : 48.0 KHz
Bit depth : 16 bits
Compression mode : Lossy
Stream size : 334 MiB (12%)
Language : Spanish
Default : Yes
Forced : No
Audio #2
ID : 3
Format : AC-3
Format/Info : Audio Coding 3
Mode extension : CM (complete main)
Format settings, Endianness : Big
Codec ID : A_AC3
Duration : 1h 44mn
Bit rate mode : Constant
Bit rate : 320 Kbps
Channel count : 6 channels
Channel positions : Front: L C R, Side: L R, LFE
Sampling rate : 44.1 KHz
Bit depth : 16 bits
Compression mode : Lossy
Stream size : 238 MiB (8%)
Language : English
Default : No
Forced : No
Text #1
ID : 4
Format : VobSub
Muxing mode : zlib
Codec ID : S_VOBSUB
Codec ID/Info : The same subtitle format used on DVDs
Language : Spanish
Default : No
Forced : No
Text #2
ID : 5
Format : VobSub
Muxing mode : zlib
Codec ID : S_VOBSUB
Codec ID/Info : The same subtitle format used on DVDs
Language : English
Default : No
Forced : No
Text #3
ID : 6
Format : UTF-8
Codec ID : S_TEXT/UTF8
Codec ID/Info : UTF-8 Plain Text
Default : Yes
Forced : No









Código: You are not allowed to view links. Register or Login
[url]https://www.bigfile.to/file/HFauyde4nT5K/xme03hd.part01.rar[/url]
[url]https://www.bigfile.to/file/VyeaZqHggqKY/xme03hd.part02.rar[/url]
[url]https://www.bigfile.to/file/h3ceV3EJ3HZR/xme03hd.part03.rar[/url]
[url]https://www.bigfile.to/file/Rk6E6bGYgsta/xme03hd.part04.rar[/url]
[url]https://www.bigfile.to/file/GVbwzywsynmm/xme03hd.part05.rar[/url]
[url]https://www.bigfile.to/file/mKVj7paG7zRm/xme03hd.part06.rar[/url]
[url]https://www.bigfile.to/file/CdNtVrhzAzQY/xme03hd.part07.rar[/url]
[url]https://www.bigfile.to/file/vx8q3crxCDPp/xme03hd.part08.rar[/url]
[url]https://www.bigfile.to/file/ETsYukwPWSeS/xme03hd.part09.rar[/url]
[url]https://www.bigfile.to/file/neNSaFqB7ht3/xme03hd.part10.rar[/url]
[url]https://www.bigfile.to/file/6fCRUmBTtaUX/xme03hd.part11.rar[/url]
[url]https://www.bigfile.to/file/P3Y6ZDBjhR3j/xme03hd.part12.rar[/url]

Desconectado campitos

  • Gran Colaborador
  • ****
  • Mensajes: 1789
X-Men First Class [2011][Full HD 1080]
« Respuesta #3 en: Marzo 20, 2016, 06:21:05 pm »


Titulo original X-Men: First Class
Ano 2011
Duracion 131 min.
Pais Estados Unidos
Director Matthew Vaughn
Guion Jane Goldman, Ashley Miller, Jamie Moss, Josh Schwartz, Zack Stentz (Historia: Bryan Singer)
Musica Henry Jackman
Fotografia John Mathieson
Reparto James McAvoy, Michael Fassbender, Kevin Bacon, Jennifer Lawrence, January Jones, Jason Flemyng, Rose Byrne, Oliver Platt, Nicholas Hoult, Alex Gonzalez, Lucas Till, Zoe Kravitz, James Remar, Matt Craven, Rade Serbedzija, Michael Ironside, Laurence Belcher, Bill Milner, Beth Goddard, Morgan Lily, Caleb Landry Jones, Edi Gathegi, Ray Wise, Hugh Jackman, Katrine de Candole
Productora 20th Century Fox / Marvel / Bad Hat Harry Productions
Genero Ciencia ficcion. Aventuras. Accion. Fantastico | Anos 60. Guerra Fria. Superheroes. Comic. Marvel Comics. Precuela
Sinopsis Antes de que los mutantes se dieran a conocer y adoptaran los nombres de Profesor X y Magneto, los jovenes Charles Xavier (James McAvoy) y Erik Lehnsherr (Michael Fassbender) empezaban a descubrir sus poderes. No habia animadversion alguna entre ellos, sino que los unia una sincera amistad y el deseo de trabajar juntos y entrenar a un grupo de jovenes mutantes para evitar el Armagedon nuclear. Su enemigo comun: el malvado Sebastian Shaw (Kevin Bacon), un mutante con el que Erik tiene una cuenta pendiente

Código: You are not allowed to view links. Register or Login
General
X-Men 5 (2011) [FULL 1080p Dual].mkv
Format : Matroska
Format version : Version 4 / Version 2
File size : 3.44 GiB
Duration : 2h 11mn
Overall bit rate : 3 738 Kbps
Movie name : X-Men: First Class (2011) [FULL 1080p Dual]
Encoded date : UTC 2014-03-05 19:09:05
Writing application : mkvmerge v6.5.0 (Isnt she lovely) built on Oct 20 2013 12:50:05
Writing library : libebml v1.3.0 + libmatroska v1.4.1
Video
ID : 1
Format : AVC
Format/Info : Advanced Video Codec
Format profile : Main@L4.0
Format settings, CABAC : Yes
Format settings, ReFrames : 4 frames
Codec ID : V_MPEG4/ISO/AVC
Duration : 2h 11mn
Bit rate : 3 000 Kbps
Width : 1 920 pixels
Height : 1 080 pixels
Display aspect ratio : 16:9
Frame rate mode : Constant
Frame rate : 23.976 fps
Color space : YUV
Chroma subsampling : 4:2:0
Bit depth : 8 bits
Scan type : Progressive
Bits/(Pixel*Frame) : 0.060
Stream size : 2.66 GiB (77%)
Writing library : x264 core 130 r2273 b3065e6
Default : Yes
Forced : No
Color primaries : BT.709
Transfer characteristics : BT.709
Matrix coefficients : BT.709
Audio #1
ID : 2
Format : AC-3
Format/Info : Audio Coding 3
Mode extension : CM (complete main)
Format settings, Endianness : Big
Codec ID : A_AC3
Duration : 2h 11mn
Bit rate mode : Constant
Bit rate : 448 Kbps
Channel count : 6 channels
Channel positions : Front: L C R, Side: L R, LFE
Sampling rate : 44.1 KHz
Bit depth : 16 bits
Compression mode : Lossy
Stream size : 422 MiB (12%)
Language : Spanish
Default : Yes
Forced : No
Audio #2
ID : 3
Format : AC-3
Format/Info : Audio Coding 3
Mode extension : CM (complete main)
Format settings, Endianness : Big
Codec ID : A_AC3
Duration : 2h 11mn
Bit rate mode : Constant
Bit rate : 320 Kbps
Channel count : 6 channels
Channel positions : Front: L C R, Side: L R, LFE
Sampling rate : 44.1 KHz
Bit depth : 16 bits
Compression mode : Lossy
Stream size : 301 MiB (9%)
Language : English
Default : No
Forced : No
Text #1
ID : 4
Format : UTF-8
Codec ID : S_TEXT/UTF8
Codec ID/Info : UTF-8 Plain Text
Language : Spanish
Default : No
Forced : No
Text #2
ID : 5
Format : PGS
Muxing mode : zlib
Codec ID : S_HDMV/PGS
Codec ID/Info : The same subtitle format used on BDs/HD-DVDs
Language : English
Default : No
Forced : No
Text #3
ID : 6
Format : UTF-8
Codec ID : S_TEXT/UTF8
Codec ID/Info : UTF-8 Plain Text
Default : Yes
Forced : No









Código: You are not allowed to view links. Register or Login
[url]https://www.bigfile.to/file/83FC6GnGhxwM/xme1genehd.part01.rar[/url]
[url]https://www.bigfile.to/file/n7XHF9Mc9HQ6/xme1genehd.part02.rar[/url]
[url]https://www.bigfile.to/file/5HtC73Rx6gGH/xme1genehd.part03.rar[/url]
[url]https://www.bigfile.to/file/BwKk98Ww2DU5/xme1genehd.part04.rar[/url]
[url]https://www.bigfile.to/file/ebTk4XreEFhg/xme1genehd.part05.rar[/url]
[url]https://www.bigfile.to/file/VNc7p6a7WqtM/xme1genehd.part06.rar[/url]
[url]https://www.bigfile.to/file/qyV2DebzQ85E/xme1genehd.part07.rar[/url]
[url]https://www.bigfile.to/file/GfCGJYRKdpxB/xme1genehd.part08.rar[/url]
[url]https://www.bigfile.to/file/HSzvm5nujrVC/xme1genehd.part09.rar[/url]
[url]https://www.bigfile.to/file/PauEepD2qghr/xme1genehd.part10.rar[/url]
[url]https://www.bigfile.to/file/R4FeexBNMQqy/xme1genehd.part11.rar[/url]
[url]https://www.bigfile.to/file/KkmednW7T2YN/xme1genehd.part12.rar[/url]
[url]https://www.bigfile.to/file/6s78fUUQ3GMn/xme1genehd.part13.rar[/url]
[url]https://www.bigfile.to/file/wrXXqsGbbSAn/xme1genehd.part14.rar[/url]
[url]https://www.bigfile.to/file/WgDkxNzc4Mba/xme1genehd.part15.rar[/url]

Desconectado campitos

  • Gran Colaborador
  • ****
  • Mensajes: 1789
X-Men Origins Wolverine [2009][Full HD 1080]
« Respuesta #4 en: Marzo 20, 2016, 06:46:23 pm »


Titulo original X-Men Origins: Wolverine
Ano 2009
Duracion 107 min.
Pais Estados Unidos
Director Gavin Hood
Guion David Benioff, Skip Woods (Personajes: Stan Lee)
Musica Harry Gregson-Williams
Fotografia Donald McAlpine
Reparto Hugh Jackman, Liev Schreiber, Danny Huston, Christian Clark, Lynn Collins, Daniel Henney, Kevin Durand, Will i Am, Ryan Reynolds, Dominic Monaghan, Taylor Kitsch, Michael-James Olsen, Tim Pocock, Julia Blake, Max Cullen, Troye Sivan, Peter OBrien, Aaron Jeffery, Alice Parkinson, Chris Sadrinna, Matthew Dale, David Ritchie, Asher Keddie, Stephen Leeder, James D. Dever, Tahyna Tozzi, Scott Adkins
Productora Coproduccion USA-Australia-Nueva Zelanda; 20th Century-Fox / Donners Company / Dune Entertainment / Marvel Enterprises / Seed Productions
Genero Fantastico. Accion. Ciencia ficcion. Thriller | Superheroes. Comic. Marvel Comics. Precuela. Spin-off
Sinopsis Precuela de la pelicula X-Men. Situada 17 anos antes, narra los inicios del arma X y la forma en la que Lobezno se convirtio en mutante. Logan (Hugh Jackman), convertido en un mutante que se hace llamar Lobezno, y que es capaz de sacar unas afiladas garras y de una fuerza y agilidad sobrehumana, ultima su venganza contra Victor Creed (Liev Schreiber), culpable de la muerte de su novia. Mientras tanto, otros mutantes se acogen al programa X para unir sus fuerzas.

Código: You are not allowed to view links. Register or Login
General
X-Men 4 (2009) [FULL 1080p Dual].mkv
Format : Matroska
Format version : Version 4 / Version 2
File size : 2.77 GiB
Duration : 1h 47mn
Overall bit rate : 3 700 Kbps
Movie name : X-Men Origins: Wolverine (2009) [FULL1080p Dual]
Encoded date : UTC 2014-03-06 19:51:14
Writing application : mkvmerge v6.5.0 (Isnt she lovely) built on Oct 20 2013 12:50:05
Writing library : libebml v1.3.0 + libmatroska v1.4.1
Video
ID : 1
Format : AVC
Format/Info : Advanced Video Codec
Format profile : Main@L4.0
Format settings, CABAC : Yes
Format settings, ReFrames : 1 frame
Format settings, GOP : N=1
Codec ID : V_MPEG4/ISO/AVC
Bit rate : 2 922 Kbps
Width : 1 920 pixels
Height : 1 080 pixels
Display aspect ratio : 16:9
Frame rate mode : Variable
Original frame rate : 23.976 fps
Color space : YUV
Chroma subsampling : 4:2:0
Bit depth : 8 bits
Scan type : Progressive
Writing library : x264 core
Default : Yes
Forced : No
Color primaries : BT.709
Transfer characteristics : BT.709
Matrix coefficients : BT.709
Audio #1
ID : 2
Format : AC-3
Format/Info : Audio Coding 3
Mode extension : CM (complete main)
Format settings, Endianness : Big
Codec ID : A_AC3
Duration : 1h 47mn
Bit rate mode : Constant
Bit rate : 384 Kbps
Channel count : 6 channels
Channel positions : Front: L C R, Side: L R, LFE
Sampling rate : 48.0 KHz
Bit depth : 16 bits
Compression mode : Lossy
Delay relative to video : 1s 0ms
Stream size : 295 MiB (10%)
Language : Spanish
Default : Yes
Forced : No
Audio #2
ID : 3
Format : AC-3
Format/Info : Audio Coding 3
Mode extension : CM (complete main)
Format settings, Endianness : Big
Codec ID : A_AC3
Duration : 1h 47mn
Bit rate mode : Constant
Bit rate : 320 Kbps
Channel count : 6 channels
Channel positions : Front: L C R, Side: L R, LFE
Sampling rate : 44.1 KHz
Bit depth : 16 bits
Compression mode : Lossy
Stream size : 246 MiB (9%)
Language : English
Default : No
Forced : No
Text #1
ID : 4
Format : VobSub
Muxing mode : zlib
Codec ID : S_VOBSUB
Codec ID/Info : The same subtitle format used on DVDs
Language : Spanish
Default : No
Forced : No
Text #2
ID : 5
Format : VobSub
Muxing mode : zlib
Codec ID : S_VOBSUB
Codec ID/Info : The same subtitle format used on DVDs
Language : English
Default : No
Forced : No
Text #3
ID : 6
Format : UTF-8
Codec ID : S_TEXT/UTF8
Codec ID/Info : UTF-8 Plain Text
Default : Yes
Forced : No









Código: You are not allowed to view links. Register or Login
[url]https://www.bigfile.to/file/QsBYCUpmpzaU/xmetwolvhd.part01.rar[/url]
[url]https://www.bigfile.to/file/gNjtTE7QBzSb/xmetwolvhd.part02.rar[/url]
[url]https://www.bigfile.to/file/J7SHDMTGktMY/xmetwolvhd.part03.rar[/url]
[url]https://www.bigfile.to/file/M4xTTwfcF9Ax/xmetwolvhd.part04.rar[/url]
[url]https://www.bigfile.to/file/8JjNPesJdhFA/xmetwolvhd.part05.rar[/url]
[url]https://www.bigfile.to/file/vuMQPS3Yqtga/xmetwolvhd.part06.rar[/url]
[url]https://www.bigfile.to/file/z4rKDR2k7Eb8/xmetwolvhd.part07.rar[/url]
[url]https://www.bigfile.to/file/GyU5ZBGUZesf/xmetwolvhd.part08.rar[/url]
[url]https://www.bigfile.to/file/ueuRk2TVW4yC/xmetwolvhd.part09.rar[/url]
[url]https://www.bigfile.to/file/5zpDDUDYqKBH/xmetwolvhd.part10.rar[/url]
[url]https://www.bigfile.to/file/fCaWxZq7tmcw/xmetwolvhd.part11.rar[/url]
[url]https://www.bigfile.to/file/KJJpjN4UJ4Ju/xmetwolvhd.part12.rar[/url]

Tags:
Tags:

 


SMF 2.0.11 | SMF © 2015, Simple Machines
Paginas Afiliadas
Twitter - FaceBook - Daraxblog
Designed by Smf Personal