Bienvenido a Tecnohackers

Tecnohackers » Cultura y Ocio » Mundo Cine » Joyas del Cine
 » 

Rocky - SAGA



Autor Tema: Rocky - SAGA  (Leído 177 veces)

Desconectado campitos

  • Gran Colaborador
  • ****
  • Mensajes: 1789
Rocky - SAGA
« en: Marzo 18, 2016, 03:28:06 pm »

Código: You are not allowed to view links. Register or Login
http://www.imdb.com/title/tt0075148/
Titulo original Rocky
Ano 1976
Duracion 119 min.
Pais Estados Unidos
Director John G. Avildsen
Guion Sylvester Stallone
Musica Bill Conti
Fotografia James Crabe
Reparto Sylvester Stallone, Talia Shire, Burt Young, Carl Weathers, Burgess Meredith, Thayer David, Joe Spinell
Productora United Artists
Genero Drama | Deporte. Boxeo
Sinopsis Rocky Balboa es un desconocido boxeador a quien se le ofrece la posibilidad de pelear por el titulo mundial de los pesos pesados. Con una gran fuerza de voluntad, Rocky se prepara concienzudamente para el combate y tambien para los cambios que acabaran produciendose en su vida.

Código: You are not allowed to view links. Register or Login
Format : Matroska
Format version : Version 4 / Version 2
File size : 2.88 GiB
Duration : 1h 59mn
Overall bit rate : 3 444 Kbps
Movie name : Rocky (1976) [FULL 1080p Dual]
Encoded date : UTC 2013-12-09 13:54:43
Writing application : mkvmerge v6.0.0 ('Coming Up For Air') built on Jan 20 2013 09:52:00
Writing library : libebml v1.3.0 + libmatroska v1.4.0
Video
ID : 1
Format : AVC
Format/Info : Advanced Video Codec
Format profile : High@L4.1
Format settings, CABAC : Yes
Format settings, ReFrames : 2 frames
Format settings, GOP : M=3, N=24
Codec ID : V_MPEG4/ISO/AVC
Duration : 1h 59mn
Bit rate : 2 736 Kbps
Width : 1 920 pixels
Height : 1 080 pixels
Display aspect ratio : 16:9
Frame rate mode : Constant
Frame rate : 23.976 fps
Color space : YUV
Chroma subsampling : 4:2:0
Bit depth : 8 bits
Scan type : Progressive
Bits/(Pixel*Frame) : 0.055
Stream size : 2.28 GiB (79%)
Writing library : x264 core
Default : Yes
Forced : No
Color primaries : BT.709
Transfer characteristics : BT.709
Matrix coefficients : BT.709
Audio #1
ID : 2
Format : AC-3
Format/Info : Audio Coding 3
Mode extension : CM (complete main)
Format settings, Endianness : Big
Codec ID : A_AC3
Duration : 1h 59mn
Bit rate mode : Constant
Bit rate : 192 Kbps
Channel count : 2 channels
Channel positions : Front: L R
Sampling rate : 48.0 KHz
Bit depth : 16 bits
Compression mode : Lossy
Stream size : 164 MiB (6%)
Title : Audio Latino
Default : Yes
Forced : No
Audio #2
ID : 3
Format : AC-3
Format/Info : Audio Coding 3
Mode extension : CM (complete main)
Format settings, Endianness : Big
Codec ID : A_AC3
Duration : 1h 59mn
Bit rate mode : Constant
Bit rate : 448 Kbps
Channel count : 6 channels
Channel positions : Front: L C R, Side: L R, LFE
Sampling rate : 48.0 KHz
Bit depth : 16 bits
Compression mode : Lossy
Stream size : 383 MiB (13%)
Title : Audio Ingles
Default : No
Forced : No
Text #1
ID : 4
Format : VobSub
Muxing mode : zlib
Codec ID : S_VOBSUB
Codec ID/Info : The same subtitle format used on DVDs
Title : Audio Ingles
Default : No
Forced : No
Text #2
ID : 5
Format : VobSub
Muxing mode : zlib
Codec ID : S_VOBSUB
Codec ID/Info : The same subtitle format used on DVDs
Title : Subtitulos Ingles
Default : No
Forced : No
Text #3
ID : 6
Format : UTF-8
Codec ID : S_TEXT/UTF8
Codec ID/Info : UTF-8 Plain Text
Default : Yes
Forced : No









Código: You are not allowed to view links. Register or Login
[url]https://www.bigfile.to/file/enau7Azryyvr/rocy1hd.part01.rar[/url]
[url]https://www.bigfile.to/file/2HnfHZeQRfV6/rocy1hd.part02.rar[/url]
[url]https://www.bigfile.to/file/7hxbH3EFjXTS/rocy1hd.part03.rar[/url]
[url]https://www.bigfile.to/file/dYjyWanyY3Y2/rocy1hd.part04.rar[/url]
[url]https://www.bigfile.to/file/5QRRPkCr7wPT/rocy1hd.part05.rar[/url]
[url]https://www.bigfile.to/file/RaCHqxKQpGrS/rocy1hd.part06.rar[/url]
[url]https://www.bigfile.to/file/FSBMVdY56PRN/rocy1hd.part07.rar[/url]
[url]https://www.bigfile.to/file/Gs6BdNXDdbSH/rocy1hd.part08.rar[/url]
[url]https://www.bigfile.to/file/8ZFXtgbyxAPY/rocy1hd.part09.rar[/url]
[url]https://www.bigfile.to/file/3wwMxk9hH4Y6/rocy1hd.part10.rar[/url]
[url]https://www.bigfile.to/file/egtCkES6TjaT/rocy1hd.part11.rar[/url]
[url]https://www.bigfile.to/file/4cQcjTnDZHnS/rocy1hd.part12.rar[/url]

Desconectado campitos

  • Gran Colaborador
  • ****
  • Mensajes: 1789
Rocky Balboa [2006][FullHD 1080]
« Respuesta #1 en: Marzo 18, 2016, 07:44:32 pm »

Código: You are not allowed to view links. Register or Login
http://www.imdb.com/title/tt0479143/
Titulo original Rocky Balboa (Rocky VI)
Ano 2006
Duracion 102 min.
Pais Estados Unidos
Director Sylvester Stallone
Guion Sylvester Stallone (Personajes: Sylvester Stallone)
Musica Bill Conti
Fotografia J. Clark Mathis
Reparto Sylvester Stallone, Burt Young, Antonio Tarver, Geraldine Hughes, Milo Ventimiglia, Tony Burton, James Francis Kelly III, Angela Boyd, A.J. Benza, Mike Tyson
Productora MGM / UA / Columbia Pictures / Revolution Studios
Genero Accion. Drama | Deporte. Boxeo. Secuela
Sinopsis El mundo del boxeo esta tan devaluado que el campeon Mason Dixon no encuentra un rival a su altura. Han pasado 30 anos desde que a Rocky Balboa (Stallone), un hombre sin futuro, se le presento la oportunidad de boxear y enfrentarse contra el gran campeon Apollo Creed. El coraje y perseverancia de Rocky, tanto en la vida como en el ring, alimento las esperanzas de millones de personas. Ahora, ya retirado, se pasa las tardes contando viejas historias a los clientes del Adrians, el restaurante que lleva el nombre de su esposa, por la que todavia guarda un silencioso luto. Apenas ve a su hijo (Milo Ventimiglia), que esta demasiado centrado en su propia vida. El paso del tiempo y los golpes recibidos lo han hecho mas humilde y lo han envejecido, pero en el fondo aun sigue siendo un luchador

Código: You are not allowed to view links. Register or Login

Format : Matroska
Format version : Version 4 / Version 2
File size : 2.62 GiB
Duration : 1h 41mn
Overall bit rate : 3 689 Kbps
Movie name : Rocky Balboa 6 (2006) [FULL 1080p Dual]
Encoded date : UTC 2013-12-09 14:49:31
Writing application : mkvmerge v6.0.0 ('Coming Up For Air') built on Jan 20 2013 09:52:00
Writing library : libebml v1.3.0 + libmatroska v1.4.0
Video
ID : 1
Format : AVC
Format/Info : Advanced Video Codec
Format profile : High@L4.1
Format settings, CABAC : Yes
Format settings, ReFrames : 2 frames
Codec ID : V_MPEG4/ISO/AVC
Duration : 1h 41mn
Bit rate : 2 719 Kbps
Width : 1 920 pixels
Height : 1 080 pixels
Display aspect ratio : 16:9
Frame rate mode : Constant
Frame rate : 23.976 fps
Color space : YUV
Chroma subsampling : 4:2:0
Bit depth : 8 bits
Scan type : Progressive
Bits/(Pixel*Frame) : 0.055
Stream size : 1.93 GiB (74%)
Writing library : x264 core
Default : Yes
Forced : No
Color primaries : BT.709
Transfer characteristics : BT.709
Matrix coefficients : BT.709
Audio #1
ID : 2
Format : AC-3
Format/Info : Audio Coding 3
Mode extension : CM (complete main)
Format settings, Endianness : Big
Codec ID : A_AC3
Duration : 1h 41mn
Bit rate mode : Constant
Bit rate : 448 Kbps
Channel count : 6 channels
Channel positions : Front: L C R, Side: L R, LFE
Sampling rate : 48.0 KHz
Bit depth : 16 bits
Compression mode : Lossy
Stream size : 326 MiB (12%)
Title : Audio Latino
Default : Yes
Forced : No
Audio #2
ID : 3
Format : AC-3
Format/Info : Audio Coding 3
Mode extension : CM (complete main)
Format settings, Endianness : Big
Codec ID : A_AC3
Duration : 1h 41mn
Bit rate mode : Constant
Bit rate : 448 Kbps
Channel count : 6 channels
Channel positions : Front: L C R, Side: L R, LFE
Sampling rate : 48.0 KHz
Bit depth : 16 bits
Compression mode : Lossy
Stream size : 326 MiB (12%)
Title : Audio Ingles
Default : No
Forced : No
Text #1
ID : 4
Format : VobSub
Muxing mode : zlib
Codec ID : S_VOBSUB
Codec ID/Info : The same subtitle format used on DVDs
Title : Subtitulos Latino
Default : No
Forced : No
Text #2
ID : 5
Format : VobSub
Muxing mode : zlib
Codec ID : S_VOBSUB
Codec ID/Info : The same subtitle format used on DVDs
Title : Subtitulos Ingles
Default : No
Forced : No
Text #3
ID : 6
Format : UTF-8
Codec ID : S_TEXT/UTF8
Codec ID/Info : UTF-8 Plain Text
Default : Yes
Forced : No









Código: You are not allowed to view links. Register or Login
[url]https://www.bigfile.to/file/nKqEZ92NDYHk/rpcy6jahd.part01.rar[/url]
[url]https://www.bigfile.to/file/PBqQ7bd7YPRa/rpcy6jahd.part02.rar[/url]
[url]https://www.bigfile.to/file/876tDbqSjXz5/rpcy6jahd.part03.rar[/url]
[url]https://www.bigfile.to/file/fZvTNsAYeTnq/rpcy6jahd.part04.rar[/url]
[url]https://www.bigfile.to/file/kyFhxeuBnaJF/rpcy6jahd.part05.rar[/url]
[url]https://www.bigfile.to/file/dfT8rQ2v4vbP/rpcy6jahd.part06.rar[/url]
[url]https://www.bigfile.to/file/4kmAsFcv9dMw/rpcy6jahd.part07.rar[/url]
[url]https://www.bigfile.to/file/w8eZbyFBs897/rpcy6jahd.part08.rar[/url]
[url]https://www.bigfile.to/file/f4kY6en5XHTR/rpcy6jahd.part09.rar[/url]
[url]https://www.bigfile.to/file/Ty8teYD6kJGj/rpcy6jahd.part10.rar[/url]
[url]https://www.bigfile.to/file/YNfu7cEvhYUd/rpcy6jahd.part11.rar[/url]

Desconectado campitos

  • Gran Colaborador
  • ****
  • Mensajes: 1789
Rocky II [1979][FullHD 1080]
« Respuesta #2 en: Marzo 18, 2016, 08:09:44 pm »

Código: You are not allowed to view links. Register or Login
http://www.imdb.com/title/tt0079817/
Titulo original Rocky II
Ano 1979
Duracion 119 min.
Pais Estados Unidos
Director Sylvester Stallone
Guion Sylvester Stallone
Musica Bill Conti
Fotografia Bill Butler
Reparto Sylvester Stallone, Carl Weathers, Talia Shire, Burgess Meredith, Burt Young, Joe Spinell
Productora United Artists
Genero Drama | Deporte. Boxeo. Secuela
Sinopsis Rocky Balboa, el boxeador de Philadelphia, disfruta de su efimera fama despues de estar a punto de derrotar al campeon mundial de los pesos pesados Apollo Creed. Las ofertas publicitarias para el anuncio de productos no van bien debido a la limitada educacion y falta de sofisticacion del pugil. Por ello, y debido a la falta de dinero y al embarazo de su mujer Adrian, acepta la demanda de revancha del "casi derrotado" Creed

Código: You are not allowed to view links. Register or Login
Format : Matroska
Format version : Version 4 / Version 2
File size : 2.88 GiB
Duration : 1h 59mn
Overall bit rate : 3 444 Kbps
Movie name : Rocky (1976) [FULL 1080p Dual]
Encoded date : UTC 2013-12-09 13:54:43
Writing application : mkvmerge v6.0.0 ('Coming Up For Air') built on Jan 20 2013 09:52:00
Writing library : libebml v1.3.0 + libmatroska v1.4.0
Video
ID : 1
Format : AVC
Format/Info : Advanced Video Codec
Format profile : High@L4.1
Format settings, CABAC : Yes
Format settings, ReFrames : 2 frames
Format settings, GOP : M=3, N=24
Codec ID : V_MPEG4/ISO/AVC
Duration : 1h 59mn
Bit rate : 2 736 Kbps
Width : 1 920 pixels
Height : 1 080 pixels
Display aspect ratio : 16:9
Frame rate mode : Constant
Frame rate : 23.976 fps
Color space : YUV
Chroma subsampling : 4:2:0
Bit depth : 8 bits
Scan type : Progressive
Bits/(Pixel*Frame) : 0.055
Stream size : 2.28 GiB (79%)
Writing library : x264 core
Default : Yes
Forced : No
Color primaries : BT.709
Transfer characteristics : BT.709
Matrix coefficients : BT.709
Audio #1
ID : 2
Format : AC-3
Format/Info : Audio Coding 3
Mode extension : CM (complete main)
Format settings, Endianness : Big
Codec ID : A_AC3
Duration : 1h 59mn
Bit rate mode : Constant
Bit rate : 192 Kbps
Channel count : 2 channels
Channel positions : Front: L R
Sampling rate : 48.0 KHz
Bit depth : 16 bits
Compression mode : Lossy
Stream size : 164 MiB (6%)
Title : Audio Latino
Default : Yes
Forced : No
Audio #2
ID : 3
Format : AC-3
Format/Info : Audio Coding 3
Mode extension : CM (complete main)
Format settings, Endianness : Big
Codec ID : A_AC3
Duration : 1h 59mn
Bit rate mode : Constant
Bit rate : 448 Kbps
Channel count : 6 channels
Channel positions : Front: L C R, Side: L R, LFE
Sampling rate : 48.0 KHz
Bit depth : 16 bits
Compression mode : Lossy
Stream size : 383 MiB (13%)
Title : Audio Ingles
Default : No
Forced : No
Text #1
ID : 4
Format : VobSub
Muxing mode : zlib
Codec ID : S_VOBSUB
Codec ID/Info : The same subtitle format used on DVDs
Title : Audio Ingles
Default : No
Forced : No
Text #2
ID : 5
Format : VobSub
Muxing mode : zlib
Codec ID : S_VOBSUB
Codec ID/Info : The same subtitle format used on DVDs
Title : Subtitulos Ingles
Default : No
Forced : No
Text #3
ID : 6
Format : UTF-8
Codec ID : S_TEXT/UTF8
Codec ID/Info : UTF-8 Plain Text
Default : Yes
Forced : No









Código: You are not allowed to view links. Register or Login
[url]https://www.bigfile.to/file/xxxJ9BPhpCH3/rocy2hd.part01.rar[/url]
[url]https://www.bigfile.to/file/W9PMFWSndXCX/rocy2hd.part02.rar[/url]
[url]https://www.bigfile.to/file/Ef3zNdehv5pM/rocy2hd.part03.rar[/url]
[url]https://www.bigfile.to/file/ZAX9QA23vshJ/rocy2hd.part04.rar[/url]
[url]https://www.bigfile.to/file/n9ZEEBMWzYt8/rocy2hd.part05.rar[/url]
[url]https://www.bigfile.to/file/dnvGaVJM8M4X/rocy2hd.part06.rar[/url]
[url]https://www.bigfile.to/file/4f8Y685WjNNV/rocy2hd.part07.rar[/url]
[url]https://www.bigfile.to/file/n6XQHfKbdbqR/rocy2hd.part08.rar[/url]
[url]https://www.bigfile.to/file/kaDhDJStdnhM/rocy2hd.part09.rar[/url]
[url]https://www.bigfile.to/file/aDfyJKK4VPsm/rocy2hd.part10.rar[/url]
[url]https://www.bigfile.to/file/GfrhNcfnnDcc/rocy2hd.part11.rar[/url]
[url]https://www.bigfile.to/file/eaTeFyQEq8Vx/rocy2hd.part12.rar[/url]
[url]https://www.bigfile.to/file/d8kWfcFrK49W/rocy2hd.part13.rar[/url]

Desconectado campitos

  • Gran Colaborador
  • ****
  • Mensajes: 1789
Rocky III [1982][FullHD 1080]
« Respuesta #3 en: Marzo 18, 2016, 08:34:59 pm »

Código: You are not allowed to view links. Register or Login
http://www.imdb.com/title/tt0084602/
Titulo original Rocky III
Ano 1982
Duracion 99 min.
Pais Estados Unidos
Director Sylvester Stallone
Guion Sylvester Stallone
Musica Bill Conti
Fotografia Bill Butler
Reparto Sylvester Stallone, Talia Shire, Burgess Meredith, Mr. T, Carl Weathers, Tony Burton, Hulk Hogan, Ian Fried
Productora United Artists
Genero Drama | Deporte. Boxeo. Secuela
Sinopsis Tras haber defendido el titulo diez veces, el campeon mundial de boxeo Rocky Balboa (Silvester Stallone) ha decidido retirarse. Sin embargo Clubber Lang (Mr. T), un boxeador muy agresivo que ha ido escalando puestos a base de destrozar a sus rivales, desea arrebatarle el titulo. Pese a la negativa de Rocky, Clubber consigue provocarle para que acepte el desafio, y esta vez el resultado del combate se presume bastante incierto

Código: You are not allowed to view links. Register or Login
Format : Matroska
Format version : Version 4 / Version 2
File size : 2.57 GiB
Duration : 1h 39mn
Overall bit rate : 3 700 Kbps
Movie name : Rocky 3 (1982) [FULL 1080p Dual]
Encoded date : UTC 2013-12-09 14:22:17
Writing application : mkvmerge v6.0.0 ('Coming Up For Air') built on Jan 20 2013 09:52:00
Writing library : libebml v1.3.0 + libmatroska v1.4.0
Video
ID : 1
Format : AVC
Format/Info : Advanced Video Codec
Format profile : High@L4.1
Format settings, CABAC : Yes
Format settings, ReFrames : 2 frames
Codec ID : V_MPEG4/ISO/AVC
Duration : 1h 39mn
Bit rate : 2 730 Kbps
Width : 1 920 pixels
Height : 1 080 pixels
Display aspect ratio : 16:9
Frame rate mode : Constant
Frame rate : 23.976 fps
Color space : YUV
Chroma subsampling : 4:2:0
Bit depth : 8 bits
Scan type : Progressive
Bits/(Pixel*Frame) : 0.055
Stream size : 1.90 GiB (74%)
Writing library : x264 core
Default : Yes
Forced : No
Color primaries : BT.709
Transfer characteristics : BT.709
Matrix coefficients : BT.709
Audio #1
ID : 2
Format : AC-3
Format/Info : Audio Coding 3
Mode extension : CM (complete main)
Format settings, Endianness : Big
Codec ID : A_AC3
Duration : 1h 39mn
Bit rate mode : Constant
Bit rate : 448 Kbps
Channel count : 6 channels
Channel positions : Front: L C R, Side: L R, LFE
Sampling rate : 48.0 KHz
Bit depth : 16 bits
Compression mode : Lossy
Stream size : 319 MiB (12%)
Title : Audio Latino
Default : Yes
Forced : No
Audio #2
ID : 3
Format : AC-3
Format/Info : Audio Coding 3
Mode extension : CM (complete main)
Format settings, Endianness : Big
Codec ID : A_AC3
Duration : 1h 39mn
Bit rate mode : Constant
Bit rate : 448 Kbps
Channel count : 6 channels
Channel positions : Front: L C R, Side: L R, LFE
Sampling rate : 48.0 KHz
Bit depth : 16 bits
Compression mode : Lossy
Stream size : 319 MiB (12%)
Title : Audio Ingles
Default : No
Forced : No
Text #1
ID : 4
Format : VobSub
Muxing mode : zlib
Codec ID : S_VOBSUB
Codec ID/Info : The same subtitle format used on DVDs
Title : Subtitulos Latino
Default : No
Forced : No
Text #2
ID : 5
Format : VobSub
Muxing mode : zlib
Codec ID : S_VOBSUB
Codec ID/Info : The same subtitle format used on DVDs
Title : Subtitulos Ingles
Default : No
Forced : No
Text #3
ID : 6
Format : UTF-8
Codec ID : S_TEXT/UTF8
Codec ID/Info : UTF-8 Plain Text
Default : Yes
Forced : No









Código: You are not allowed to view links. Register or Login
[url]https://www.bigfile.to/file/wn4sZ62XRuu6/rocy3hd.part01.rar[/url]
[url]https://www.bigfile.to/file/5fZQMhjmfSYQ/rocy3hd.part02.rar[/url]
[url]https://www.bigfile.to/file/nBj8Ebp4tnFU/rocy3hd.part03.rar[/url]
[url]https://www.bigfile.to/file/E7mCaQGhd38f/rocy3hd.part04.rar[/url]
[url]https://www.bigfile.to/file/2URMsa5d42g6/rocy3hd.part05.rar[/url]
[url]https://www.bigfile.to/file/CRCNe2Etjtqu/rocy3hd.part06.rar[/url]
[url]https://www.bigfile.to/file/bUnG2QSe7MZA/rocy3hd.part07.rar[/url]
[url]https://www.bigfile.to/file/GtfpaFXac8RC/rocy3hd.part08.rar[/url]
[url]https://www.bigfile.to/file/PTN8Py6srdDR/rocy3hd.part09.rar[/url]
[url]https://www.bigfile.to/file/3XTFUxCyavgR/rocy3hd.part10.rar[/url]
[url]https://www.bigfile.to/file/6Khg3k6ThmCc/rocy3hd.part11.rar[/url]

Desconectado campitos

  • Gran Colaborador
  • ****
  • Mensajes: 1789
Rocky IV [1985][FullHD 1080]
« Respuesta #4 en: Marzo 18, 2016, 09:00:13 pm »

Código: You are not allowed to view links. Register or Login
http://www.imdb.com/title/tt0089927/
Titulo original Rocky IV
Ano 1985
Duracion 90 min.
Pais Estados Unidos
Director Sylvester Stallone
Guion Sylvester Stallone
Musica Vince DiCola
Fotografia Bill Butler
Reparto Sylvester Stallone, Talia Shire, Burt Young, Carl Weathers, Brigitte Nielsen, Tony Burton, Michael Pataki, Dolph Lundgren
Productora United Artists
Genero Drama | Deporte. Boxeo. Secuela
Sinopsis Nuevas aventuras tanto personales como deportivas del boxeador Rocky Balboa, que en esta ocasion debe enfrentarse a un duro y frio boxeador sovietico

Código: You are not allowed to view links. Register or Login
Format : Matroska
Format version : Version 4 / Version 2
File size : 2.36 GiB
Duration : 1h 31mn
Overall bit rate : 3 687 Kbps
Movie name : Rocky 4 (1985) [FULL 1080p Dual]
Encoded date : UTC 2013-12-09 14:27:17
Writing application : mkvmerge v6.0.0 ('Coming Up For Air') built on Jan 20 2013 09:52:00
Writing library : libebml v1.3.0 + libmatroska v1.4.0
Video
ID : 1
Format : AVC
Format/Info : Advanced Video Codec
Format profile : High@L4.1
Format settings, CABAC : Yes
Format settings, ReFrames : 2 frames
Codec ID : V_MPEG4/ISO/AVC
Duration : 1h 31mn
Bit rate : 2 718 Kbps
Width : 1 920 pixels
Height : 1 080 pixels
Display aspect ratio : 16:9
Frame rate mode : Constant
Frame rate : 23.976 fps
Color space : YUV
Chroma subsampling : 4:2:0
Bit depth : 8 bits
Scan type : Progressive
Bits/(Pixel*Frame) : 0.055
Stream size : 1.74 GiB (74%)
Writing library : x264 core
Default : Yes
Forced : No
Color primaries : BT.709
Transfer characteristics : BT.709
Matrix coefficients : BT.709
Audio #1
ID : 2
Format : AC-3
Format/Info : Audio Coding 3
Mode extension : CM (complete main)
Format settings, Endianness : Big
Codec ID : A_AC3
Duration : 1h 31mn
Bit rate mode : Constant
Bit rate : 448 Kbps
Channel count : 6 channels
Channel positions : Front: L C R, Side: L R, LFE
Sampling rate : 48.0 KHz
Bit depth : 16 bits
Compression mode : Lossy
Stream size : 293 MiB (12%)
Title : Audio Latino
Default : Yes
Forced : No
Audio #2
ID : 3
Format : AC-3
Format/Info : Audio Coding 3
Mode extension : CM (complete main)
Format settings, Endianness : Big
Codec ID : A_AC3
Duration : 1h 31mn
Bit rate mode : Constant
Bit rate : 448 Kbps
Channel count : 6 channels
Channel positions : Front: L C R, Side: L R, LFE
Sampling rate : 48.0 KHz
Bit depth : 16 bits
Compression mode : Lossy
Stream size : 293 MiB (12%)
Title : Audio Ingles
Default : No
Forced : No
Text #1
ID : 4
Format : VobSub
Muxing mode : zlib
Codec ID : S_VOBSUB
Codec ID/Info : The same subtitle format used on DVDs
Title : Subtitulos Latino
Default : No
Forced : No
Text #2
ID : 5
Format : VobSub
Muxing mode : zlib
Codec ID : S_VOBSUB
Codec ID/Info : The same subtitle format used on DVDs
Title : Subtitulos Ingles
Default : No
Forced : No
Text #3
ID : 6
Format : UTF-8
Codec ID : S_TEXT/UTF8
Codec ID/Info : UTF-8 Plain Text
Default : Yes
Forced : No









Código: You are not allowed to view links. Register or Login
[url]https://www.bigfile.to/file/AyHU3jZGC8kM/rocy4hd.part01.rar[/url]
[url]https://www.bigfile.to/file/5bXYPB2RebVf/rocy4hd.part02.rar[/url]
[url]https://www.bigfile.to/file/Pg2bb3nASbke/rocy4hd.part03.rar[/url]
[url]https://www.bigfile.to/file/f9UennByAXcd/rocy4hd.part04.rar[/url]
[url]https://www.bigfile.to/file/pXp2fsgNAXu3/rocy4hd.part05.rar[/url]
[url]https://www.bigfile.to/file/p4YfAac32wBv/rocy4hd.part06.rar[/url]
[url]https://www.bigfile.to/file/dsGqXDnAxkfk/rocy4hd.part07.rar[/url]
[url]https://www.bigfile.to/file/Yk6JDh8t2Zfq/rocy4hd.part08.rar[/url]
[url]https://www.bigfile.to/file/KBvENXDkKC7d/rocy4hd.part09.rar[/url]
[url]https://www.bigfile.to/file/Kfkguf9zaVnT/rocy4hd.part10.rar[/url]

Desconectado campitos

  • Gran Colaborador
  • ****
  • Mensajes: 1789
Rocky V [1990][FullHD 1080]
« Respuesta #5 en: Marzo 18, 2016, 09:25:26 pm »

Código: You are not allowed to view links. Register or Login
http://www.imdb.com/title/tt0100507/
Titulo original Rocky V
Ano 1990
Duracion 104 min.
Pais Estados Unidos
Director John G. Avildsen
Guion Sylvester Stallone
Musica Bill Conti
Fotografia Steven Poster
Reparto Sylvester Stallone, Talia Shire, Burgess Meredith, Burt Young, Sage Stallone, Tommy Morrison, Richard Grant
Productora United Artists
Genero Drama | Deporte. Boxeo. Secuela
Sinopsis Rocky, arruinado y retirado del boxeo, vuelve a su barrio. Alli conoce a un joven con aptitudes para boxear y decide entrenarle.

Código: You are not allowed to view links. Register or Login

Format : Matroska
Format version : Version 4 / Version 2
File size : 2.69 GiB
Duration : 1h 44mn
Overall bit rate : 3 696 Kbps
Movie name : Rocky 5 (1990) [FULL 1080p Dual]
Encoded date : UTC 2013-12-09 14:40:20
Writing application : mkvmerge v6.0.0 ('Coming Up For Air') built on Jan 20 2013 09:52:00
Writing library : libebml v1.3.0 + libmatroska v1.4.0
Video
ID : 1
Format : AVC
Format/Info : Advanced Video Codec
Format profile : High@L4.1
Format settings, CABAC : Yes
Format settings, ReFrames : 2 frames
Codec ID : V_MPEG4/ISO/AVC
Duration : 1h 44mn
Bit rate : 2 726 Kbps
Width : 1 920 pixels
Height : 1 080 pixels
Display aspect ratio : 16:9
Frame rate mode : Constant
Frame rate : 23.976 fps
Color space : YUV
Chroma subsampling : 4:2:0
Bit depth : 8 bits
Scan type : Progressive
Bits/(Pixel*Frame) : 0.055
Stream size : 1.98 GiB (74%)
Writing library : x264 core
Default : Yes
Forced : No
Color primaries : BT.709
Transfer characteristics : BT.709
Matrix coefficients : BT.709
Audio #1
ID : 2
Format : AC-3
Format/Info : Audio Coding 3
Mode extension : CM (complete main)
Format settings, Endianness : Big
Codec ID : A_AC3
Duration : 1h 44mn
Bit rate mode : Constant
Bit rate : 448 Kbps
Channel count : 6 channels
Channel positions : Front: L C R, Side: L R, LFE
Sampling rate : 48.0 KHz
Bit depth : 16 bits
Compression mode : Lossy
Stream size : 334 MiB (12%)
Title : Audio Latino
Default : Yes
Forced : No
Audio #2
ID : 3
Format : AC-3
Format/Info : Audio Coding 3
Mode extension : CM (complete main)
Format settings, Endianness : Big
Codec ID : A_AC3
Duration : 1h 44mn
Bit rate mode : Constant
Bit rate : 448 Kbps
Channel count : 6 channels
Channel positions : Front: L C R, Side: L R, LFE
Sampling rate : 48.0 KHz
Bit depth : 16 bits
Compression mode : Lossy
Stream size : 334 MiB (12%)
Title : Audio Ingles
Default : No
Forced : No
Text #1
ID : 4
Format : VobSub
Muxing mode : zlib
Codec ID : S_VOBSUB
Codec ID/Info : The same subtitle format used on DVDs
Title : Subtitulos Latino
Default : No
Forced : No
Text #2
ID : 5
Format : VobSub
Muxing mode : zlib
Codec ID : S_VOBSUB
Codec ID/Info : The same subtitle format used on DVDs
Title : Subtitulos Ingles
Default : No
Forced : No
Text #3
ID : 6
Format : UTF-8
Codec ID : S_TEXT/UTF8
Codec ID/Info : UTF-8 Plain Text
Default : Yes
Forced : No









Código: You are not allowed to view links. Register or Login
[url]https://www.bigfile.to/file/fPDbEQ2CaFxu/rocy5hd.part01.rar[/url]
[url]https://www.bigfile.to/file/ksqUhGbnuMVf/rocy5hd.part02.rar[/url]
[url]https://www.bigfile.to/file/4wgXxeVmFwcK/rocy5hd.part03.rar[/url]
[url]https://www.bigfile.to/file/37KSgyCgyCX8/rocy5hd.part04.rar[/url]
[url]https://www.bigfile.to/file/G7BkzKcMaFH6/rocy5hd.part05.rar[/url]
[url]https://www.bigfile.to/file/USFbR4MSgK6P/rocy5hd.part06.rar[/url]
[url]https://www.bigfile.to/file/psbu67beamSz/rocy5hd.part07.rar[/url]
[url]https://www.bigfile.to/file/pr9Sf9PGWfpS/rocy5hd.part08.rar[/url]
[url]https://www.bigfile.to/file/CVqCJdyF4AAC/rocy5hd.part09.rar[/url]
[url]https://www.bigfile.to/file/AdfDQWs8MzqB/rocy5hd.part10.rar[/url]
[url]https://www.bigfile.to/file/4Rz6TjGJU8mX/rocy5hd.part11.rar[/url]

Tags:
Tags:

 


SMF 2.0.11 | SMF © 2015, Simple Machines
Paginas Afiliadas
Twitter - FaceBook - Daraxblog
Designed by Smf Personal