Bienvenido a Tecnohackers

Tecnohackers » Cultura y Ocio » Mundo Cine » Joyas del Cine
 » 

Bloodsport [1988][Full 1080]



Autor Tema: Bloodsport [1988][Full 1080]  (Leído 92 veces)

Desconectado campitos

  • Gran Colaborador
  • ****
  • Mensajes: 1789
Bloodsport [1988][Full 1080]
« en: Marzo 15, 2016, 12:54:23 am »


Titulo original Bloodsport
Ano 1988
Duracion 92 min.
Pais Estados Unidos
Director Newt Arnold
Guion Sheldon Lettich, Christopher Cosby, Mel Friedman
Musica Paul Hertzog
Fotografia David Worth
Reparto Jean-Claude Van Damme, Donald Gibb, Bolo Yeung, Leah Ayres, Norman Burton, Forest Whitaker, Roy Chiao, Philip Chan, Michel Qissi (AKA Tong Po)
Productora Cannon Group
Genero Accion | Artes marciales
Sinopsis Cada cinco anos se celebra el "Kumite", un torneo secreto de artes marciales en el que se enfrentan, a vida o muerte, los mejores luchadores del mundo. Frank Dux, que trabaja eventualmente para la CIA, se convertira en el primer occidental que participa en este torneo. Pero, para ganar, debera derrotar al despiadado Chong Li, el vigente campeon.

Código: You are not allowed to view links. Register or Login
General
Bloodsport (1988) [FULL 1080p Dual].mkv
Format : Matroska
Format version : Version 4 / Version 2
File size : 2.24 GiB
Duration : 1h 32mn
Overall bit rate : 3 477 Kbps
Movie name : Bloodsport (1988) [FULL 1080p Dual]
Encoded date : UTC 2014-02-04 22:22:50
Writing application : mkvmerge v6.0.0 ('Coming Up For Air') built on Jan 20 2013 09:52:00
Writing library : libebml v1.3.0 + libmatroska v1.4.0
Video
ID : 1
Format : AVC
Format/Info : Advanced Video Codec
Format profile : High@L4.1
Format settings, CABAC : Yes
Format settings, ReFrames : 2 frames
Format settings, GOP : M=3, N=24
Codec ID : V_MPEG4/ISO/AVC
Duration : 1h 32mn
Bit rate : 2 896 Kbps
Width : 1 920 pixels
Height : 1 080 pixels
Display aspect ratio : 16:9
Frame rate mode : Constant
Frame rate : 23.976 fps
Color space : YUV
Chroma subsampling : 4:2:0
Bit depth : 8 bits
Scan type : Progressive
Bits/(Pixel*Frame) : 0.058
Stream size : 1.87 GiB (83%)
Writing library : x264 core
Default : Yes
Forced : No
Color primaries : BT.709
Transfer characteristics : BT.709
Matrix coefficients : BT.709
Audio #1
ID : 2
Format : AC-3
Format/Info : Audio Coding 3
Mode extension : CM (complete main)
Format settings, Endianness : Big
Codec ID : A_AC3
Duration : 1h 32mn
Bit rate mode : Constant
Bit rate : 192 Kbps
Channel count : 2 channels
Channel positions : Front: L R
Sampling rate : 44.1 KHz
Bit depth : 16 bits
Compression mode : Lossy
Delay relative to video : 2s 0ms
Stream size : 127 MiB (6%)
Title : Audio Latino
Default : Yes
Forced : No
Audio #2
ID : 3
Format : AC-3
Format/Info : Audio Coding 3
Mode extension : CM (complete main)
Format settings, Endianness : Big
Codec ID : A_AC3
Duration : 1h 32mn
Bit rate mode : Constant
Bit rate : 320 Kbps
Channel count : 6 channels
Channel positions : Front: L C R, Side: L R, LFE
Sampling rate : 44.1 KHz
Bit depth : 16 bits
Compression mode : Lossy
Stream size : 211 MiB (9%)
Title : Audio Ingles
Default : No
Forced : No
Text #1
ID : 4
Format : UTF-8
Codec ID : S_TEXT/UTF8
Codec ID/Info : UTF-8 Plain Text
Title : Subtitulos Latino
Default : No
Forced : No
Text #2
ID : 5
Format : VobSub
Muxing mode : zlib
Codec ID : S_VOBSUB
Codec ID/Info : The same subtitle format used on DVDs
Title : Subtitulos Ingles
Default : No
Forced : No
Text #3
ID : 6
Format : UTF-8
Codec ID : S_TEXT/UTF8
Codec ID/Info : UTF-8 Plain Text
Default : Yes
Forced : No









Código: You are not allowed to view links. Register or Login
[url]https://www.bigfile.to/file/QyC5kcCb8NZu/blofdphd.part01.rar[/url]
[url]https://www.bigfile.to/file/mX8qe7vZc7zD/blofdphd.part02.rar[/url]
[url]https://www.bigfile.to/file/TWFGgnaA5xcW/blofdphd.part03.rar[/url]
[url]https://www.bigfile.to/file/cxawKsPzWN3F/blofdphd.part04.rar[/url]
[url]https://www.bigfile.to/file/h5cV4j2Akkc2/blofdphd.part05.rar[/url]
[url]https://www.bigfile.to/file/DycaqBsZmmbp/blofdphd.part06.rar[/url]
[url]https://www.bigfile.to/file/hNrBxsqTBQjM/blofdphd.part07.rar[/url]
[url]https://www.bigfile.to/file/PEUDtKVRpYHC/blofdphd.part08.rar[/url]
[url]https://www.bigfile.to/file/CxfF2jsD2jsJ/blofdphd.part09.rar[/url]
[url]https://www.bigfile.to/file/6RH4eGRtZxGY/blofdphd.part10.rar[/url]

Tags:
Tags:

 


SMF 2.0.11 | SMF © 2015, Simple Machines
Paginas Afiliadas
Twitter - FaceBook - Daraxblog
Designed by Smf Personal