Bienvenido a Tecnohackers

Tecnohackers » Cultura y Ocio » Mundo Cine » Joyas del Cine
 » 

Harry Potter - Saga



Autor Tema: Harry Potter - Saga  (Leído 242 veces)

Desconectado pomposos

  • Gran Experto
  • *****
  • Mensajes: 4456
Harry Potter - Saga
« en: Mayo 07, 2015, 01:31:01 am »


Titulo original Harry Potter and the Chamber of Secrets (Harry Potter 2)
Ano 2002
Duracion 154 min.
Pais Reino Unido
Director Chris Columbus
Guion Steve Kloves (Novela: J.K. Rowling)
Musica John Williams
Fotografia Roger Pratt
Reparto Daniel Radcliffe, Rupert Grint, Emma Watson, Kenneth Branagh, Richard Harris, Maggie Smith, Alan Rickman, Julie Walters, Mark Williams, Robbie Coltrane, Tom Felton, Bonnie Wright, Jason Isaacs, Shirley Henderson, Miriam Margolyes, Christian Coulson, Richard Griffiths, Fiona Shaw, David Bradley, Matthew Lewis, John Cleese, Robert Hardy, Warwick Davis, Gemma Jones, Harry Melling
Productora Coproduccion Reino Unido-USA; Warner Bros. Pictures / Heyday Films / 1492 Pictures
Genero Fantastico. Aventuras | Magia. Secuela
Sinopsis Terminado el verano, Harry (Radcliffe) no ve la hora de abandonar la casa de sus odiosos tios, pero, inesperadamente se presenta en su dormitorio Dobby, un elfo domestico, que le anuncia que correra un gran peligro si vuelve a Hogwarts. A pesar de los esfuerzos del elfo por retenerlo, Harry es rescatado por Ron y sus hermanos, con la ayuda de un coche volador, y recibido con los brazos abiertos en el calido hogar de los Weasley.
A pesar de que a Harry y a Ron les impiden entrar en el anden 9 ¾ y subir al Expreso de Hogwarts, ellos se las arreglan para llegar a tiempo de empezar el nuevo curso. Las hazanas de nuestro heroe ya se han extendido por todo el colegio, convirtiendolo en el centro de una atencion no deseada. Entre sus nuevos admiradores esta Ginny (Bonnie Wright), la hermana pequena de Ron; el aspirante a fotografo Colin Creevey (Hugh Mitchell) y Gilderoy Lockhart (Branagh), el nuevo y vanidoso profesor de defensa contra las artes oscuras.
Sin embargo, ni siquiera Lockhart puede ofrecer una explicacion plausible ni una solucion eficaz para combatir el terror que se esta apoderando del colegio. En tal circunstancia, la atencion se centra en Harry, pero todos empiezan a dudar de el. Todos, excepto Ron, Hermione y la pequena y fragil Ginny, que vive volcada en su nuevo y misterioso diario. Pero Harry no decepcionara a sus amigos y se enfrentara a la oscura fuerza que acecha Hogwarts.

Código: You are not allowed to view links. Register or Login
General
Format : Matroska
Format version : Version 4 / Version 2
File size : 4.16 GiB
Duration : 2h 40mn
Overall bit rate : 3 698 Kbps
Movie name : Harry Potter2 (2002) [FULL 1080p Dual]
Encoded date : UTC 2013-12-20 17:36:37
Writing application : mkvmerge v6.0.0 (Coming Up For Air) built on Jan 20 2013 09:52:00
Writing library : libebml v1.3.0 + libmatroska v1.4.0
Video
ID : 1
Format : AVC
Format/Info : Advanced Video Codec
Format profile : High@L4.1
Format settings, CABAC : Yes
Format settings, ReFrames : 2 frames
Codec ID : V_MPEG4/ISO/AVC
Duration : 2h 40mn
Bit rate : 2 729 Kbps
Width : 1 920 pixels
Height : 1 080 pixels
Display aspect ratio : 16:9
Frame rate mode : Constant
Frame rate : 23.976 fps
Color space : YUV
Chroma subsampling : 4:2:0
Bit depth : 8 bits
Scan type : Progressive
Bits/(Pixel*Frame) : 0.055
Stream size : 3.07 GiB (74%)
Writing library : x264 core
Default : Yes
Forced : No
Color primaries : BT.709
Transfer characteristics : BT.709
Matrix coefficients : BT.709
Audio #1
ID : 2
Format : AC-3
Format/Info : Audio Coding 3
Mode extension : CM (complete main)
Format settings, Endianness : Big
Codec ID : A_AC3
Duration : 2h 40mn
Bit rate mode : Constant
Bit rate : 448 Kbps
Channel count : 6 channels
Channel positions : Front: L C R, Side: L R, LFE
Sampling rate : 48.0 KHz
Bit depth : 16 bits
Compression mode : Lossy
Stream size : 516 MiB (12%)
Title : Audio Latin Spanish
Default : Yes
Forced : No
Audio #2
ID : 3
Format : AC-3
Format/Info : Audio Coding 3
Mode extension : CM (complete main)
Format settings, Endianness : Big
Codec ID : A_AC3
Duration : 2h 40mn
Bit rate mode : Constant
Bit rate : 448 Kbps
Channel count : 6 channels
Channel positions : Front: L C R, Side: L R, LFE
Sampling rate : 48.0 KHz
Bit depth : 16 bits
Compression mode : Lossy
Stream size : 516 MiB (12%)
Title : Audio English
Default : No
Forced : No
Text #1
ID : 4
Format : VobSub
Muxing mode : zlib
Codec ID : S_VOBSUB
Codec ID/Info : The same subtitle format used on DVDs
Title : Subtitles Latin Spanish
Default : No
Forced : No
Text #2
ID : 5
Format : VobSub
Muxing mode : zlib
Codec ID : S_VOBSUB
Codec ID/Info : The same subtitle format used on DVDs
Title : Subtitles English
Default : No
Forced : No
Text #3
ID : 6
Format : UTF-8
Codec ID : S_TEXT/UTF8
Codec ID/Info : UTF-8 Plain Text
Default : Yes
Forced : No









Código: You are not allowed to view links. Register or Login
http://www.uploadable.ch/file/dCmkGyTbUpY9/hapot2hd.part01.rar
http://www.uploadable.ch/file/MTRTRn9G9kMC/hapot2hd.part02.rar
http://www.uploadable.ch/file/vUeq99tDjGqg/hapot2hd.part03.rar
http://www.uploadable.ch/file/dMdWMdqc4YqV/hapot2hd.part04.rar
http://www.uploadable.ch/file/hRAtdmbHurr3/hapot2hd.part05.rar
http://www.uploadable.ch/file/5MhWy8YR6Hu3/hapot2hd.part06.rar
http://www.uploadable.ch/file/B9mt7tKcPHnW/hapot2hd.part07.rar
http://www.uploadable.ch/file/7Zu9yF9DN6RE/hapot2hd.part08.rar
http://www.uploadable.ch/file/nkwuJ2mY3Kg8/hapot2hd.part09.rar
http://www.uploadable.ch/file/nrzRuFZ9canC/hapot2hd.part10.rar
http://www.uploadable.ch/file/q5kGU5fE4w8W/hapot2hd.part11.rar
http://www.uploadable.ch/file/dDTq8cxKUjEV/hapot2hd.part12.rar
http://www.uploadable.ch/file/9eq42CgJT47M/hapot2hd.part13.rar
http://www.uploadable.ch/file/VxgMF292xpx6/hapot2hd.part14.rar
http://www.uploadable.ch/file/KuRhBUUpeReB/hapot2hd.part15.rar
http://www.uploadable.ch/file/9awaeDQm5Pb7/hapot2hd.part16.rar
http://www.uploadable.ch/file/m3D64qbh2Vyp/hapot2hd.part17.rar

Desconectado pomposos

  • Gran Experto
  • *****
  • Mensajes: 4456
Harry Potter and the Goblet of Fire [2005][Full HD 1080]
« Respuesta #1 en: Mayo 07, 2015, 01:36:11 am »


Titulo original Harry Potter and the Goblet of Fire (Harry Potter 4)
Ano 2005
Duracion 157 min.
Pais Reino Unido
Director Mike Newell
Guion Steve Kloves (Novela: J.K. Rowling)
Musica Patrick Doyle
Fotografia Roger Pratt
Reparto Daniel Radcliffe, Rupert Grint, Emma Watson, Robbie Coltrane, Michael Gambon, Alan Rickman, Ralph Fiennes, Tom Felton, Miranda Richardson, Brendan Gleeson, Gary Oldman, Maggie Smith, Jason Isaacs, Shefali Chowdhury, Afshan Azad, Angelica Mandy, Robert Pattinson, David Tennant, Bonnie Wright, Matthew Lewis, Stanislav Ianevski, Clemence Poesy, David Bradley, Devon Murray, Mark Williams, Timothy Spall, James Phelps, Oliver Phelps, Robert Hardy, Katie Leung, Warwick Davis, Alfie Enoch, Jamie Waylett, Josh Herdman, Shirley Henderson, Roger Lloyd-Pack, Adrian Rawlins, Geraldine Somerville, Frances de la Tour, Predrag Bjelac, Eric Sykes
Productora Coproduccion GB-USA; Warner Bros. Pictures
Genero Fantastico. Aventuras. Drama | Magia. Secuela
Sinopsis La cuarta parte de la serie del nino mago comienza con la Copa Internacional de Quidditch. Cuenta tambien el inicio de la atraccion por Cho Chang y otro ano de magia, en el que una gran sorpresa obligara a Harry a enfrentarse a muchos desafios temibles. Tambien habra un torneo de magia para tres escuelas, y el temido regreso de "Aquel-que-no-debe-ser-nombrado".

Código: You are not allowed to view links. Register or Login
General
Format : Matroska
Format version : Version 4 / Version 2
File size : 4.04 GiB
Duration : 2h 37mn
Overall bit rate : 3 680 Kbps
Movie name : Harry Potter 4 (2005) [FULL 1080p Dual]
Encoded date : UTC 2013-12-20 21:45:52
Writing application : mkvmerge v6.0.0 (Coming Up For Air) built on Jan 20 2013 09:52:00
Writing library : libebml v1.3.0 + libmatroska v1.4.0
Video
ID : 1
Format : AVC
Format/Info : Advanced Video Codec
Format profile : High@L4.1
Format settings, CABAC : Yes
Format settings, ReFrames : 2 frames
Codec ID : V_MPEG4/ISO/AVC
Duration : 2h 37mn
Bit rate : 2 710 Kbps
Width : 1 920 pixels
Height : 1 080 pixels
Display aspect ratio : 16:9
Frame rate mode : Constant
Frame rate : 23.976 fps
Color space : YUV
Chroma subsampling : 4:2:0
Bit depth : 8 bits
Scan type : Progressive
Bits/(Pixel*Frame) : 0.055
Stream size : 2.97 GiB (74%)
Title : Subtitles english
Writing library : x264 core
Default : Yes
Forced : No
Color primaries : BT.709
Transfer characteristics : BT.709
Matrix coefficients : BT.709
Audio #1
ID : 2
Format : AC-3
Format/Info : Audio Coding 3
Mode extension : CM (complete main)
Format settings, Endianness : Big
Codec ID : A_AC3
Duration : 2h 37mn
Bit rate mode : Constant
Bit rate : 448 Kbps
Channel count : 6 channels
Channel positions : Front: L C R, Side: L R, LFE
Sampling rate : 48.0 KHz
Bit depth : 16 bits
Compression mode : Lossy
Stream size : 503 MiB (12%)
Title : Audio latin spanish
Default : Yes
Forced : No
Audio #2
ID : 3
Format : AC-3
Format/Info : Audio Coding 3
Mode extension : CM (complete main)
Format settings, Endianness : Big
Codec ID : A_AC3
Duration : 2h 37mn
Bit rate mode : Constant
Bit rate : 448 Kbps
Channel count : 6 channels
Channel positions : Front: L C R, Side: L R, LFE
Sampling rate : 48.0 KHz
Bit depth : 16 bits
Compression mode : Lossy
Stream size : 503 MiB (12%)
Title : Audio english
Default : No
Forced : No
Text #1
ID : 4
Format : VobSub
Muxing mode : zlib
Codec ID : S_VOBSUB
Codec ID/Info : The same subtitle format used on DVDs
Title : Subtitles latin spanish
Default : No
Forced : No
Text #2
ID : 5
Format : VobSub
Muxing mode : zlib
Codec ID : S_VOBSUB
Codec ID/Info : The same subtitle format used on DVDs
Title : Subtitles english
Default : No
Forced : No
Text #3
ID : 6
Format : UTF-8
Codec ID : S_TEXT/UTF8
Codec ID/Info : UTF-8 Plain Text
Default : Yes
Forced : No









Código: You are not allowed to view links. Register or Login
http://www.uploadable.ch/file/RakWqbxFGKZf/hapot4hd.part01.rar
http://www.uploadable.ch/file/hqcMqqtnXrYP/hapot4hd.part02.rar
http://www.uploadable.ch/file/SW7xeqKH4kXM/hapot4hd.part03.rar
http://www.uploadable.ch/file/P9fF6Wece7RE/hapot4hd.part04.rar
http://www.uploadable.ch/file/7b2gdJdUnnmZ/hapot4hd.part05.rar
http://www.uploadable.ch/file/GMDWeJ8tsEzj/hapot4hd.part06.rar
http://www.uploadable.ch/file/KCPj6scp5Ngj/hapot4hd.part07.rar
http://www.uploadable.ch/file/7jp7WS5fuGsy/hapot4hd.part08.rar
http://www.uploadable.ch/file/RMTaUdFegQwG/hapot4hd.part09.rar
http://www.uploadable.ch/file/5VXbAtnvr6c2/hapot4hd.part10.rar
http://www.uploadable.ch/file/WxQa8bfhA8yS/hapot4hd.part11.rar
http://www.uploadable.ch/file/9qfm2yCcseEA/hapot4hd.part12.rar
http://www.uploadable.ch/file/zvd5hgkGe8dM/hapot4hd.part13.rar
http://www.uploadable.ch/file/B7n9Mk6rgp7E/hapot4hd.part14.rar
http://www.uploadable.ch/file/X3R9F9cuuDUP/hapot4hd.part15.rar
http://www.uploadable.ch/file/CqtxGK5GWxaN/hapot4hd.part16.rar
http://www.uploadable.ch/file/7VPMuBG79g7N/hapot4hd.part17.rar

Desconectado pomposos

  • Gran Experto
  • *****
  • Mensajes: 4456
Harry Potter and the Half-Blood Prince [2009][Full HD 1080]
« Respuesta #2 en: Mayo 07, 2015, 01:41:23 am »


Titulo original Harry Potter and the Half-Blood Prince (Harry Potter 6)
Ano 2009
Duracion 153 min.
Pais Reino Unido
Director David Yates
Guion Steve Kloves (Novela: J.K. Rowling)
Musica Nicholas Hooper
Fotografia Bruno Delbonnel
Reparto Daniel Radcliffe, Emma Watson, Rupert Grint, Michael Gambon, Jim Broadbent, Alan Rickman, Maggie Smith, Tom Felton, Bonnie Wright, Jessie Cave, Helena Bonham Carter, Evanna Lynch, Robbie Coltrane, Helen McCrory, Mark Williams, Julie Walters, David Thewlis, Natalia Tena, Warwick Davis, David Bradley, Matthew Lewis, Dave Legeno, Oliver Phelps, James Phelps, Freddie Stroma
Productora Warner Bros. Pictures / Heyday Films
Genero Fantastico. Aventuras. Drama | Adolescencia. Magia. Secuela
Sinopsis Con dieciseis anos cumplidos, Harry inicia el sexto curso en Hogwarts en medio de terribles acontecimientos que asolan Inglaterra. Elegido capitan del equipo de Quidditch, los entrenamientos, los examenes y las chicas ocupan todo su tiempo, pero la tranquilidad dura poco. A pesar de los ferreos controles de seguridad que protegen la escuela, dos alumnos son brutalmente atacados. Dumbledore sabe que se acerca el momento, anunciado por la Profecia, en que Harry y Voldemort se enfrentaran a muerte: «El unico con poder para vencer al Senor Tenebroso se acerca... Uno de los dos debe morir a manos del otro, pues ninguno de los dos podra vivir mientras siga el otro con vida». El anciano director solicitara la ayuda de Harry, y juntos emprenderan peligrosos viajes para intentar debilitar al enemigo, para lo cual el joven mago contara con la ayuda de un viejo libro de pociones perteneciente a un misterioso principe que se hace llamar el Principe Mestizo.

Código: You are not allowed to view links. Register or Login
General
Format : Matroska
Format version : Version 4 / Version 2
File size : 3.96 GiB
Duration : 2h 33mn
Overall bit rate : 3 697 Kbps
Movie name : Harry Potter 6 (2009) [FULL 1080p Dual]
Encoded date : UTC 2013-12-22 19:36:06
Writing application : mkvmerge v6.0.0 (Coming Up For Air) built on Jan 20 2013 09:52:00
Writing library : libebml v1.3.0 + libmatroska v1.4.0
Video
ID : 1
Format : AVC
Format/Info : Advanced Video Codec
Format profile : High@L4.1
Format settings, CABAC : Yes
Format settings, ReFrames : 2 frames
Codec ID : V_MPEG4/ISO/AVC
Duration : 2h 33mn
Bit rate : 2 728 Kbps
Width : 1 920 pixels
Height : 1 080 pixels
Display aspect ratio : 16:9
Frame rate mode : Constant
Frame rate : 23.976 fps
Color space : YUV
Chroma subsampling : 4:2:0
Bit depth : 8 bits
Scan type : Progressive
Bits/(Pixel*Frame) : 0.055
Stream size : 2.92 GiB (74%)
Writing library : x264 core
Default : Yes
Forced : No
Color primaries : BT.709
Transfer characteristics : BT.709
Matrix coefficients : BT.709
Audio #1
ID : 2
Format : AC-3
Format/Info : Audio Coding 3
Mode extension : CM (complete main)
Format settings, Endianness : Big
Codec ID : A_AC3
Duration : 2h 33mn
Bit rate mode : Constant
Bit rate : 448 Kbps
Channel count : 6 channels
Channel positions : Front: L C R, Side: L R, LFE
Sampling rate : 48.0 KHz
Bit depth : 16 bits
Compression mode : Lossy
Stream size : 492 MiB (12%)
Title : Audio Latino
Default : Yes
Forced : No
Audio #2
ID : 3
Format : AC-3
Format/Info : Audio Coding 3
Mode extension : CM (complete main)
Format settings, Endianness : Big
Codec ID : A_AC3
Duration : 2h 33mn
Bit rate mode : Constant
Bit rate : 448 Kbps
Channel count : 6 channels
Channel positions : Front: L C R, Side: L R, LFE
Sampling rate : 48.0 KHz
Bit depth : 16 bits
Compression mode : Lossy
Stream size : 492 MiB (12%)
Title : Audio Ingles
Default : No
Forced : No
Text #1
ID : 4
Format : VobSub
Muxing mode : zlib
Codec ID : S_VOBSUB
Codec ID/Info : The same subtitle format used on DVDs
Title : Subtitulos Latino
Default : No
Forced : No
Text #2
ID : 5
Format : VobSub
Muxing mode : zlib
Codec ID : S_VOBSUB
Codec ID/Info : The same subtitle format used on DVDs
Title : Subtitulos Latino
Default : No
Forced : No
Text #3
ID : 6
Format : UTF-8
Codec ID : S_TEXT/UTF8
Codec ID/Info : UTF-8 Plain Text
Default : Yes
Forced : No









Código: You are not allowed to view links. Register or Login
http://www.uploadable.ch/file/Y2a6dUHjnxNf/hapot6hd.part01.rar
http://www.uploadable.ch/file/9HxFw9VAehTE/hapot6hd.part02.rar
http://www.uploadable.ch/file/dNNGkESeDcxK/hapot6hd.part03.rar
http://www.uploadable.ch/file/SwXdAk7A7pgU/hapot6hd.part04.rar
http://www.uploadable.ch/file/nsXy39PtXzJK/hapot6hd.part05.rar
http://www.uploadable.ch/file/9dNfyJMWFKRu/hapot6hd.part06.rar
http://www.uploadable.ch/file/HXazW3tMaMps/hapot6hd.part07.rar
http://www.uploadable.ch/file/fQCAeDJ79gKB/hapot6hd.part08.rar
http://www.uploadable.ch/file/ZQrtEuE9q9Vu/hapot6hd.part09.rar
http://www.uploadable.ch/file/WtmMrzqdRUGK/hapot6hd.part10.rar
http://www.uploadable.ch/file/A2VJTaxn8Gdt/hapot6hd.part11.rar
http://www.uploadable.ch/file/ejUka4P74Pb3/hapot6hd.part12.rar
http://www.uploadable.ch/file/xcQmXJvwe4Jk/hapot6hd.part13.rar
http://www.uploadable.ch/file/DHty3CPzEDeY/hapot6hd.part14.rar
http://www.uploadable.ch/file/RkaRWPAT39cb/hapot6hd.part15.rar
http://www.uploadable.ch/file/HpdZZgfQk9tf/hapot6hd.part16.rar
http://www.uploadable.ch/file/B6Vp9zvhjWgd/hapot6hd.part17.rar

Desconectado pomposos

  • Gran Experto
  • *****
  • Mensajes: 4456
Harry Potter and the Order of the Phoenix [2007][Full HD 1080]
« Respuesta #3 en: Mayo 07, 2015, 01:46:33 am »


Titulo original Harry Potter and the Order of the Phoenix (Harry Potter 5)
Ano 2007
Duracion 138 min.
Pais Reino Unido
Director David Yates
Guion Michael Goldenberg (Novela: J.K. Rowling)
Musica Nicholas Hooper (Tema: John Williams)
Fotografia Slawomir Idziak
Reparto Daniel Radcliffe, Emma Watson, Rupert Grint, Tom Felton, Ralph Fiennes, Jason Isaacs, Helena Bonham Carter, Robbie Coltrane, Michael Gambon, Brendan Gleeson, Richard Griffiths, Gary Oldman, Alan Rickman, Fiona Shaw, Maggie Smith, Imelda Staunton, David Thewlis, Emma Thompson, Julie Walters, Robert Pattinson, Natalia Tena, Matthew Lewis, Evanna Lynch, Bonnie Wright, David Bradley, Katie Leung, Warwick Davis, Mark Williams, James Phelps, Oliver Phelps, Afshan Azad, Shefali Chowdhury, Robert Hardy, Chris Rankin, Timothy Bateson
Productora Coproduccion GB-USA; Warner Bros. Pictures
Genero Fantastico. Aventuras. Drama | Magia. Secuela
Sinopsis Las tediosas vacaciones en casa de sus tios todavia no han acabado y Harry se encuentra mas inquieto que nunca. Apenas ha tenido noticias de Ron y Hermione y presiente que algo extrano esta sucediendo en Hogwarts. En efecto, cuando por fin comienza otro curso en el famoso colegio de magia y hechiceria, sus temores se hacen realidad. El Ministerio de Magia niega que Voldemort haya regresado e inicia una campana de desprestigio contra Harry y Dumbledore, encomendando a la horrible profesora Dolores Umbridge la tarea de vigilar todos sus movimientos. Asi, pues, ademas de sentirse solo e incomprendido, Harry sospecha que Voldemort puede adivinar sus pensamientos e intuye que el temible mago trata de apoderarse de un objeto secreto que le permitiria recuperar su poder destructivo.

Código: You are not allowed to view links. Register or Login
General
Format : Matroska
Format version : Version 4 / Version 2
File size : 3.54 GiB
Duration : 2h 18mn
Overall bit rate : 3 670 Kbps
Movie name : Harry Potter 5 (2007) [FULL 1080p Dual]
Encoded date : UTC 2013-12-21 03:39:08
Writing application : mkvmerge v6.0.0 (Coming Up For Air) built on Jan 20 2013 09:52:00
Writing library : libebml v1.3.0 + libmatroska v1.4.0
Video
ID : 1
Format : AVC
Format/Info : Advanced Video Codec
Format profile : High@L4.1
Format settings, CABAC : Yes
Format settings, ReFrames : 2 frames
Codec ID : V_MPEG4/ISO/AVC
Duration : 2h 18mn
Bit rate : 2 701 Kbps
Width : 1 920 pixels
Height : 1 080 pixels
Display aspect ratio : 16:9
Frame rate mode : Constant
Frame rate : 23.976 fps
Color space : YUV
Chroma subsampling : 4:2:0
Bit depth : 8 bits
Scan type : Progressive
Bits/(Pixel*Frame) : 0.054
Stream size : 2.61 GiB (74%)
Writing library : x264 core
Default : Yes
Forced : No
Color primaries : BT.709
Transfer characteristics : BT.709
Matrix coefficients : BT.709
Audio #1
ID : 2
Format : AC-3
Format/Info : Audio Coding 3
Mode extension : CM (complete main)
Format settings, Endianness : Big
Codec ID : A_AC3
Duration : 2h 18mn
Bit rate mode : Constant
Bit rate : 448 Kbps
Channel count : 6 channels
Channel positions : Front: L C R, Side: L R, LFE
Sampling rate : 48.0 KHz
Bit depth : 16 bits
Compression mode : Lossy
Stream size : 443 MiB (12%)
Title : Audio latin spanish
Default : Yes
Forced : No
Audio #2
ID : 3
Format : AC-3
Format/Info : Audio Coding 3
Mode extension : CM (complete main)
Format settings, Endianness : Big
Codec ID : A_AC3
Duration : 2h 18mn
Bit rate mode : Constant
Bit rate : 448 Kbps
Channel count : 6 channels
Channel positions : Front: L C R, Side: L R, LFE
Sampling rate : 48.0 KHz
Bit depth : 16 bits
Compression mode : Lossy
Stream size : 443 MiB (12%)
Title : Audio english
Default : No
Forced : No
Text #1
ID : 4
Format : VobSub
Muxing mode : zlib
Codec ID : S_VOBSUB
Codec ID/Info : The same subtitle format used on DVDs
Title : Subtitles latin spanish
Default : No
Forced : No
Text #2
ID : 5
Format : VobSub
Muxing mode : zlib
Codec ID : S_VOBSUB
Codec ID/Info : The same subtitle format used on DVDs
Title : Subtitles english
Default : No
Forced : No
Text #3
ID : 6
Format : UTF-8
Codec ID : S_TEXT/UTF8
Codec ID/Info : UTF-8 Plain Text
Default : Yes
Forced : No









Código: You are not allowed to view links. Register or Login
http://www.uploadable.ch/file/wh3cpEAWHcSD/hapot5hd.part01.rar
http://www.uploadable.ch/file/mjh8QtPnA2XS/hapot5hd.part02.rar
http://www.uploadable.ch/file/Qx4kuZaAR5QX/hapot5hd.part03.rar
http://www.uploadable.ch/file/EBGqGyhgdUWC/hapot5hd.part04.rar
http://www.uploadable.ch/file/rSA3xHst9cNx/hapot5hd.part05.rar
http://www.uploadable.ch/file/XCVjWy4Gsm3v/hapot5hd.part06.rar
http://www.uploadable.ch/file/xsqpZ3Fnzxwk/hapot5hd.part07.rar
http://www.uploadable.ch/file/KQXxayZurFVg/hapot5hd.part08.rar
http://www.uploadable.ch/file/f2DVqDZ6qxuv/hapot5hd.part09.rar
http://www.uploadable.ch/file/Zt9AHjQT9hCJ/hapot5hd.part10.rar
http://www.uploadable.ch/file/AFXM267Gprfn/hapot5hd.part11.rar
http://www.uploadable.ch/file/yPKWQ34yEbqP/hapot5hd.part12.rar
http://www.uploadable.ch/file/wjgcaRg3xmG7/hapot5hd.part13.rar
http://www.uploadable.ch/file/kSkZYWV9f4ng/hapot5hd.part14.rar
http://www.uploadable.ch/file/R53F4YjXxtAN/hapot5hd.part15.rar

Desconectado pomposos

  • Gran Experto
  • *****
  • Mensajes: 4456
Harry Potter and the Philosophers Stone [2001][Full HD 1080]
« Respuesta #4 en: Mayo 07, 2015, 01:51:43 am »


Titulo original Harry Potter and the Sorcerers Stone (Harry Potter and the Philosophers Stone)
Ano 2001
Duracion 152 min.
Pais Reino Unido
Director Chris Columbus
Guion Steve Kloves (Novela: J.K. Rowling)
Musica John Williams
Fotografia John Seale
Reparto Daniel Radcliffe, Rupert Grint, Emma Watson, Robbie Coltrane, Richard Harris, Maggie Smith, Alan Rickman, Richard Griffiths, Tom Felton, Ian Hart, John Hurt, Harry Melling, John Cleese, Matthew Lewis, Warwick Davis, David Bradley, Fiona Shaw, Sean Biggerstaff, Devon Murray, Alfie Enoch, Zoe Wanamaker, James Phelps, Oliver Phelps, Julie Walters
Productora Coproduccion GB-USA; Warner Bros. Pictures / Heyday Films / 1492 Films / Duncan Henderson
Genero Fantastico. Aventuras. Infantil | Magia
Sinopsis El dia en que cumple once anos, Harry Potter se entera de que es hijo de dos destacados hechiceros, de los que ha heredado poderes magicos. En la escuela Hogwarts de Magia y Hechiceria, donde se educa con otros ninos que tambien tienen poderes especiales, aprendera todo lo necesario para ser mago.

Código: You are not allowed to view links. Register or Login
General
Format : Matroska
Format version : Version 4 / Version 2
File size : 3.92 GiB
Duration : 2h 32mn
Overall bit rate : 3 688 Kbps
Movie name : Harry Potter (2001) [FULL 1080p Dual]
Encoded date : UTC 2013-12-20 15:24:03
Writing application : mkvmerge v6.0.0 (Coming Up For Air) built on Jan 20 2013 09:52:00
Writing library : libebml v1.3.0 + libmatroska v1.4.0
Video
ID : 1
Format : AVC
Format/Info : Advanced Video Codec
Format profile : High@L4.1
Format settings, CABAC : Yes
Format settings, ReFrames : 2 frames
Codec ID : V_MPEG4/ISO/AVC
Duration : 2h 32mn
Bit rate : 2 719 Kbps
Width : 1 920 pixels
Height : 1 080 pixels
Display aspect ratio : 16:9
Frame rate mode : Constant
Frame rate : 23.976 fps
Color space : YUV
Chroma subsampling : 4:2:0
Bit depth : 8 bits
Scan type : Progressive
Bits/(Pixel*Frame) : 0.055
Stream size : 2.89 GiB (74%)
Writing library : x264 core
Default : Yes
Forced : No
Color primaries : BT.709
Transfer characteristics : BT.709
Matrix coefficients : BT.709
Audio #1
ID : 2
Format : AC-3
Format/Info : Audio Coding 3
Mode extension : CM (complete main)
Format settings, Endianness : Big
Codec ID : A_AC3
Duration : 2h 32mn
Bit rate mode : Constant
Bit rate : 448 Kbps
Channel count : 6 channels
Channel positions : Front: L C R, Side: L R, LFE
Sampling rate : 48.0 KHz
Bit depth : 16 bits
Compression mode : Lossy
Stream size : 488 MiB (12%)
Title : Audio Latino
Default : Yes
Forced : No
Audio #2
ID : 3
Format : AC-3
Format/Info : Audio Coding 3
Mode extension : CM (complete main)
Format settings, Endianness : Big
Codec ID : A_AC3
Duration : 2h 32mn
Bit rate mode : Constant
Bit rate : 448 Kbps
Channel count : 6 channels
Channel positions : Front: L C R, Side: L R, LFE
Sampling rate : 48.0 KHz
Bit depth : 16 bits
Compression mode : Lossy
Stream size : 488 MiB (12%)
Title : Audio Ingles
Default : No
Forced : No
Text #1
ID : 4
Format : VobSub
Muxing mode : zlib
Codec ID : S_VOBSUB
Codec ID/Info : The same subtitle format used on DVDs
Title : Subtitulos Latino
Default : No
Forced : No
Text #2
ID : 5
Format : VobSub
Muxing mode : zlib
Codec ID : S_VOBSUB
Codec ID/Info : The same subtitle format used on DVDs
Title : Subtitulos Ingles
Default : No
Forced : No
Text #3
ID : 6
Format : UTF-8
Codec ID : S_TEXT/UTF8
Codec ID/Info : UTF-8 Plain Text
Default : Yes
Forced : No









Código: You are not allowed to view links. Register or Login
http://www.uploadable.ch/file/BspUMMNUYVJR/hapot1hd.part01.rar
http://www.uploadable.ch/file/rJntjzMMxyQv/hapot1hd.part02.rar
http://www.uploadable.ch/file/HgbHgaTSdC9z/hapot1hd.part03.rar
http://www.uploadable.ch/file/jzGBzQuE7wnt/hapot1hd.part04.rar
http://www.uploadable.ch/file/MXAbsgx5BJ96/hapot1hd.part05.rar
http://www.uploadable.ch/file/syXHYcksEDeJ/hapot1hd.part06.rar
http://www.uploadable.ch/file/f8eTpa8heVJ8/hapot1hd.part07.rar
http://www.uploadable.ch/file/Ne8qUyGbYs8Q/hapot1hd.part08.rar
http://www.uploadable.ch/file/SkZqDQ8xwsPp/hapot1hd.part09.rar
http://www.uploadable.ch/file/mGu5wXEZmpk9/hapot1hd.part10.rar
http://www.uploadable.ch/file/5AJFR4WCRrDF/hapot1hd.part11.rar
http://www.uploadable.ch/file/AFmX3eG3dwbz/hapot1hd.part12.rar
http://www.uploadable.ch/file/NXSc6BpgyNJX/hapot1hd.part13.rar
http://www.uploadable.ch/file/HtMTbnB7B4Dj/hapot1hd.part14.rar
http://www.uploadable.ch/file/vjeeF2AjfDxw/hapot1hd.part15.rar
http://www.uploadable.ch/file/Rbk88Y9XXNrY/hapot1hd.part16.rar

Desconectado pomposos

  • Gran Experto
  • *****
  • Mensajes: 4456
Harry Potter and the Prisoner of Azkaban [2004][Full HD 1080]
« Respuesta #5 en: Mayo 07, 2015, 01:56:53 am »


Titulo original Harry Potter and the Prisoner of Azkaban (Harry Potter 3)
Ano 2004
Duracion 142 min.
Pais Reino Unido
Director Alfonso Cuaron
Guion Steve Kloves (Novela: J.K. Rowling)
Musica John Williams
Fotografia Michael Seresin
Reparto Daniel Radcliffe, Rupert Grint, Emma Watson, David Thewlis, Michael Gambon, Robbie Coltrane, Alan Rickman, Gary Oldman, Tom Felton, Timothy Spall, Emma Thompson, Maggie Smith, Pam Ferris, Mark Williams, Richard Griffiths, Robert Hardy, Matthew Lewis, Lee Ingleby, Dawn French, Julie Christie, Fiona Shaw, Oliver Phelps, James Phelps, Devon Murray
Productora Coproduccion GB-USA; Warner Bros. Pictures / Heyday Films / 1492 Pictures
Genero Fantastico. Aventuras. Drama | Magia. Viajes en el tiempo. Hombres lobo. Secuela
Sinopsis Cuando Harry Potter y sus amigos vuelven a Hogwarts para cursar su tercer ano de estudios, se ven involucrados en un misterio: de la prision para magos de Azkaban se ha fugado Sirius Black, un peligroso mago que fue complice de Lord Voldemort y que intentara vengarse de Harry Potter. El joven aprendiz de mago contribuyo en gran medida a la condena de Sirius, por lo que hay razones para temer por su vida.

Código: You are not allowed to view links. Register or Login
General
Format : Matroska
Format version : Version 4 / Version 2
File size : 3.67 GiB
Duration : 2h 21mn
Overall bit rate : 3 712 Kbps
Movie name : Harry Potter 3 (2004) [FULL 1080p Dual]
Encoded date : UTC 2013-12-20 21:28:43
Writing application : mkvmerge v6.0.0 (Coming Up For Air) built on Jan 20 2013 09:52:00
Writing library : libebml v1.3.0 + libmatroska v1.4.0
Video
ID : 1
Format : AVC
Format/Info : Advanced Video Codec
Format profile : High@L4.1
Format settings, CABAC : Yes
Format settings, ReFrames : 2 frames
Format settings, GOP : M=3, N=24
Codec ID : V_MPEG4/ISO/AVC
Duration : 2h 21mn
Bit rate : 2 743 Kbps
Width : 1 920 pixels
Height : 1 080 pixels
Display aspect ratio : 16:9
Frame rate mode : Constant
Frame rate : 23.976 fps
Color space : YUV
Chroma subsampling : 4:2:0
Bit depth : 8 bits
Scan type : Progressive
Bits/(Pixel*Frame) : 0.055
Stream size : 2.71 GiB (74%)
Writing library : x264 core
Default : Yes
Forced : No
Color primaries : BT.709
Transfer characteristics : BT.709
Matrix coefficients : BT.709
Audio #1
ID : 2
Format : AC-3
Format/Info : Audio Coding 3
Mode extension : CM (complete main)
Format settings, Endianness : Big
Codec ID : A_AC3
Duration : 2h 21mn
Bit rate mode : Constant
Bit rate : 448 Kbps
Channel count : 6 channels
Channel positions : Front: L C R, Side: L R, LFE
Sampling rate : 48.0 KHz
Bit depth : 16 bits
Compression mode : Lossy
Stream size : 454 MiB (12%)
Title : Audio Latin Spanish
Default : Yes
Forced : No
Audio #2
ID : 3
Format : AC-3
Format/Info : Audio Coding 3
Mode extension : CM (complete main)
Format settings, Endianness : Big
Codec ID : A_AC3
Duration : 2h 21mn
Bit rate mode : Constant
Bit rate : 448 Kbps
Channel count : 6 channels
Channel positions : Front: L C R, Side: L R, LFE
Sampling rate : 48.0 KHz
Bit depth : 16 bits
Compression mode : Lossy
Stream size : 454 MiB (12%)
Title : Audio English
Default : No
Forced : No
Text #1
ID : 4
Format : VobSub
Muxing mode : zlib
Codec ID : S_VOBSUB
Codec ID/Info : The same subtitle format used on DVDs
Title : Subtitles latin spanish
Default : No
Forced : No
Text #2
ID : 5
Format : VobSub
Muxing mode : zlib
Codec ID : S_VOBSUB
Codec ID/Info : The same subtitle format used on DVDs
Title : Subtitles english
Default : No
Forced : No
Text #3
ID : 6
Format : UTF-8
Codec ID : S_TEXT/UTF8
Codec ID/Info : UTF-8 Plain Text
Default : Yes
Forced : No









Código: You are not allowed to view links. Register or Login
http://www.uploadable.ch/file/6SZh2mR4ACgD/hapot3hd.part01.rar
http://www.uploadable.ch/file/X9fSNsX3Qcuv/hapot3hd.part02.rar
http://www.uploadable.ch/file/Wje3yA89488T/hapot3hd.part03.rar
http://www.uploadable.ch/file/X8QksQz3Hk5t/hapot3hd.part04.rar
http://www.uploadable.ch/file/ec6tuB59t2Y8/hapot3hd.part05.rar
http://www.uploadable.ch/file/pPMf5Ent5tMT/hapot3hd.part06.rar
http://www.uploadable.ch/file/N3YnzTdnz6gY/hapot3hd.part07.rar
http://www.uploadable.ch/file/3tcwMmzrvaeB/hapot3hd.part08.rar
http://www.uploadable.ch/file/JcrckNHpjABH/hapot3hd.part09.rar
http://www.uploadable.ch/file/FRf86s9PMR4n/hapot3hd.part10.rar
http://www.uploadable.ch/file/CvhJRGfks56V/hapot3hd.part11.rar
http://www.uploadable.ch/file/FRdRZS8fR4M6/hapot3hd.part12.rar
http://www.uploadable.ch/file/uHmyucxYSxa8/hapot3hd.part13.rar
http://www.uploadable.ch/file/RPeKyWVxqtEB/hapot3hd.part14.rar
http://www.uploadable.ch/file/BnfKsENvH3yC/hapot3hd.part15.rar

Tags:
Tags:

 


SMF 2.0.11 | SMF © 2015, Simple Machines
Paginas Afiliadas
Twitter - FaceBook - Daraxblog
Designed by Smf Personal