Bienvenido a Tecnohackers

Tecnohackers » Cultura y Ocio » Mundo Cine » Joyas del Cine
 » 

Faster [2010][FULL 1080p]



Autor Tema: Faster [2010][FULL 1080p]  (Leído 93 veces)

Desconectado pomposos

  • Gran Experto
  • *****
  • Mensajes: 4456
Faster [2010][FULL 1080p]
« en: Mayo 04, 2015, 11:18:48 pm »


Titulo original Faster
Ano 2010
Duracion 98 min.
Pais Estados Unidos
Director George Tillman Jr.
Guion Joe Gayton, Tony Gayton
Musica Clint Mansell
Fotografia Michael Grady
Reparto Dwayne "The Rock" Johnson, Billy Bob Thornton, Carla Gugino, Oliver Jackson-Cohen, Adewale Akinnuoye-Agbaje, Maggie Grace, Tom Berenger, Jennifer Carpenter, Mike Epps
Productora CBS Films / Castle Rock Entertainment / State Street Pictures
Genero Thriller. Accion
Sinopsis Un ex presidiario (Dwayne Johnson) quiere vengar la muerte de su hermano, ocurrida anos antes cuando ambos daban un golpe. Un veterano policia (Billy Bob Thornton), al mismo tiempo que sigue sus pasos, intenta averiguar quienes fueron los culpables del asesinato.

Código: You are not allowed to view links. Register or Login
General
Faster (2010) [FULL 1080p Dual]
Format : Matroska
Format version : Version 4 / Version 2
File size : 2.55 GiB
Duration : 1h 37mn
Overall bit rate : 3 721 Kbps
Movie name : Faster (2010) [FULL 1080p Dual]
Encoded date : UTC 2014-01-03 19:20:35
Writing application : mkvmerge v6.0.0 (Coming Up For Air) built on Jan 20 2013 09:52:00
Writing library : libebml v1.3.0 + libmatroska v1.4.0
Video
ID : 1
Format : AVC
Format/Info : Advanced Video Codec
Format profile : Main@L4.0
Format settings, CABAC : Yes
Format settings, ReFrames : 4 frames
Codec ID : V_MPEG4/ISO/AVC
Duration : 1h 37mn
Bit rate : 3 000 Kbps
Width : 1 920 pixels
Height : 1 080 pixels
Display aspect ratio : 16:9
Frame rate mode : Constant
Frame rate : 23.976 fps
Color space : YUV
Chroma subsampling : 4:2:0
Bit depth : 8 bits
Scan type : Progressive
Bits/(Pixel*Frame) : 0.060
Stream size : 1.97 GiB (77%)
Writing library : x264 core 130 r2273 b3065e6
Default : Yes
Forced : No
Color primaries : BT.709
Transfer characteristics : BT.709
Matrix coefficients : BT.709
Audio #1
ID : 2
Format : AC-3
Format/Info : Audio Coding 3
Mode extension : CM (complete main)
Format settings, Endianness : Big
Codec ID : A_AC3
Duration : 1h 37mn
Bit rate mode : Constant
Bit rate : 448 Kbps
Channel count : 6 channels
Channel positions : Front: L C R, Side: L R, LFE
Sampling rate : 48.0 KHz
Bit depth : 16 bits
Compression mode : Lossy
Delay relative to video : 20ms
Stream size : 314 MiB (12%)
Title : Audio Latino
Default : Yes
Forced : No
Audio #2
ID : 3
Format : AC-3
Format/Info : Audio Coding 3
Mode extension : CM (complete main)
Format settings, Endianness : Big
Codec ID : A_AC3
Duration : 1h 37mn
Bit rate mode : Constant
Bit rate : 320 Kbps
Channel count : 6 channels
Channel positions : Front: L C R, Side: L R, LFE
Sampling rate : 44.1 KHz
Bit depth : 16 bits
Compression mode : Lossy
Stream size : 224 MiB (9%)
Title : Audio Ingles
Default : No
Forced : No
Text #1
ID : 4
Format : UTF-8
Codec ID : S_TEXT/UTF8
Codec ID/Info : UTF-8 Plain Text
Title : Subtitulos Latino
Default : No
Forced : No
Text #2
ID : 5
Format : UTF-8
Codec ID : S_TEXT/UTF8
Codec ID/Info : UTF-8 Plain Text
Title : Subtitulos Ingles
Default : No
Forced : No
Text #3
ID : 6
Format : UTF-8
Codec ID : S_TEXT/UTF8
Codec ID/Info : UTF-8 Plain Text
Default : Yes
Forced : No









Código: You are not allowed to view links. Register or Login
http://www.uploadable.ch/file/HDx9yf36rt7P/fatrghd.part01.rar
http://www.uploadable.ch/file/QKFt8mG6PbzY/fatrghd.part02.rar
http://www.uploadable.ch/file/EAn3WpPDyaCa/fatrghd.part03.rar
http://www.uploadable.ch/file/ATc3mxQmTUub/fatrghd.part04.rar
http://www.uploadable.ch/file/5GcjFFpHk7cA/fatrghd.part05.rar
http://www.uploadable.ch/file/Rp6tWNBTHJt8/fatrghd.part06.rar
http://www.uploadable.ch/file/H5eauAnhvuHU/fatrghd.part07.rar
http://www.uploadable.ch/file/HN8k5zFTxEuF/fatrghd.part08.rar
http://www.uploadable.ch/file/Z4JCVbNBWh5B/fatrghd.part09.rar
http://www.uploadable.ch/file/RGCve8XspW2F/fatrghd.part10.rar
http://www.uploadable.ch/file/tKBEsrAcVHkK/fatrghd.part11.rar

Tags:
Tags:

 


SMF 2.0.11 | SMF © 2015, Simple Machines
Paginas Afiliadas
Twitter - FaceBook - Daraxblog
Designed by Smf Personal