Bienvenido a Tecnohackers

Tecnohackers » Cultura y Ocio » Mundo Cine » Joyas del Cine
 » 

Alien - Saga



Autor Tema: Alien - Saga  (Leído 219 veces)

Desconectado pomposos

  • Gran Experto
  • *****
  • Mensajes: 4456
Alien - Saga
« en: Noviembre 23, 2014, 02:50:46 pm »

Código: You are not allowed to view links. Register or Login
http://www.imdb.com/title/tt0078748/
TITULO ORIGINAL Alien
ANO 1979
PAIS USA
DIRECTOR Ridley Scott
GUION Dan O'Bannon
MUSICA Jerry Goldsmith
FOTOGRAFIA Dereck Vanlint & Denys Ayling
REPARTO Sigourney Weaver, John Hurt, Yaphet Kotto, Tom Skerritt, Veronica Cartwright, Harry Dean Stanton, Ian Holm
PRODUCTORA 20th Century Fox / Brandywine Productions
PREMIOS 1979: Oscar: Mejores efectos visuales. Nominada a Mejor direccion artistica.
 1979: 2 premios BAFTA: Diseno de produccion, Sonido. 5 nominaciones.
 1979: Nominada al Globo de Oro: Mejor banda sonora.
 1979: Festival de San Sebastian: Mejor fotografia y efectos especiales.
GENERO Ciencia ficcion. Terror | Extraterrestres. Aventura espacial. Pelicula de culto
SINOPSIS De regreso a la Tierra, la nave de carga Nostromo interrumpe su viaje y despierta a sus siete tripulantes. El ordenador central, MADRE, ha detectado la misteriosa transmision de una forma de vida desconocida, procedente de un planeta cercano. La nave se dirige entonces al extrano planeta para investigar el origen de la comunicacion

Código: You are not allowed to view links. Register or Login
General
Complete name : Alien 1 (1979) 1080p FULL Dual.mkv
Format : Matroska
Format version : Version 4 / Version 2
File size : 4.95 GiB
Duration : 1h 56mn
Overall bit rate : 6 077 Kbps
Movie name : Alien 1 [1979][1080p FULL Dual]
Encoded date : UTC 2014-09-13 22:37:16
Writing application : mkvmerge v6.9.1 ('Blue Panther') 64bit built on Apr 18 2014 18:23:38
Writing library : libebml v1.3.0 + libmatroska v1.4.1
Video
ID : 1
Format : AVC
Format/Info : Advanced Video Codec
Format profile : High@L4.1
Format settings, CABAC : Yes
Format settings, ReFrames : 2 frames
Codec ID : V_MPEG4/ISO/AVC
Duration : 1h 56mn
Bit rate : 5 239 Kbps
Width : 1 920 pixels
Height : 1 080 pixels
Display aspect ratio : 16:9
Frame rate mode : Constant
Frame rate : 23.976 fps
Color space : YUV
Chroma subsampling : 4:2:0
Bit depth : 8 bits
Scan type : Progressive
Bits/(Pixel*Frame) : 0.105
Stream size : 4.12 GiB (83%)
Title : [url=http://WwW.CinemaniaHD.org]WwW.CinemaniaHD.org[/url]
Writing library : x264 core 142
Default : Yes
Forced : No
Color primaries : BT.709
Transfer characteristics : BT.709
Matrix coefficients : BT.709
Audio #1
ID : 2
Format : AC-3
Format/Info : Audio Coding 3
Mode extension : CM (complete main)
Format settings, Endianness : Big
Codec ID : A_AC3
Duration : 1h 56mn
Bit rate mode : Constant
Bit rate : 448 Kbps
Channel(s) : 6 channels
Channel positions : Front: L C R, Side: L R, LFE
Sampling rate : 48.0 KHz
Bit depth : 16 bits
Compression mode : Lossy
Stream size : 374 MiB (7%)
Title : Español Latino
Default : Yes
Forced : No
Audio #2
ID : 3
Format : AC-3
Format/Info : Audio Coding 3
Mode extension : CM (complete main)
Format settings, Endianness : Big
Codec ID : A_AC3
Duration : 1h 56mn
Bit rate mode : Constant
Bit rate : 448 Kbps
Channel(s) : 6 channels
Channel positions : Front: L C R, Side: L R, LFE
Sampling rate : 48.0 KHz
Bit depth : 16 bits
Compression mode : Lossy
Stream size : 374 MiB (7%)
Title : Ingles
Default : No
Forced : No
Text #1
ID : 4
Format : UTF-8
Codec ID : S_TEXT/UTF8
Codec ID/Info : UTF-8 Plain Text
Title : [url=http://WwW.CinemaniaHD.org]WwW.CinemaniaHD.org[/url]
Default : Yes
Forced : No
Text #2
ID : 5
Format : VobSub
Muxing mode : zlib
Codec ID : S_VOBSUB
Codec ID/Info : The same subtitle format used on DVDs
Title : Subtitulos Español
Default : No
Forced : No
Text #3
ID : 6
Format : VobSub
Muxing mode : zlib
Codec ID : S_VOBSUB
Codec ID/Info : The same subtitle format used on DVDs
Title : Subtitulos Ingles
Default : No
Forced : No









Código: You are not allowed to view links. Register or Login
http://www.uploadable.ch/file/nYYSny2MnMuq/aldd1hd.part01.rar
http://www.uploadable.ch/file/fhjKE4z5xfDx/aldd1hd.part02.rar
http://www.uploadable.ch/file/DJfh7pM3G42B/aldd1hd.part03.rar
http://www.uploadable.ch/file/dWkjPAPVJYcz/aldd1hd.part04.rar
http://www.uploadable.ch/file/jGRWmR2vZETv/aldd1hd.part05.rar
http://www.uploadable.ch/file/TawbuGb42nf4/aldd1hd.part06.rar
http://www.uploadable.ch/file/ejT3CDATuREv/aldd1hd.part07.rar
http://www.uploadable.ch/file/PWaBmPCRXeHN/aldd1hd.part08.rar
http://www.uploadable.ch/file/J39xUtsktVUf/aldd1hd.part09.rar
http://www.uploadable.ch/file/mssqc7puWkWT/aldd1hd.part10.rar
http://www.uploadable.ch/file/zSbQVCfUXAHj/aldd1hd.part11.rar
http://www.uploadable.ch/file/spdd8zb929U6/aldd1hd.part12.rar
http://www.uploadable.ch/file/XvXp6ErTkd6E/aldd1hd.part13.rar
http://www.uploadable.ch/file/Pua4ZUkVrAzr/aldd1hd.part14.rar
http://www.uploadable.ch/file/3vS8Dx6qgjtw/aldd1hd.part15.rar
http://www.uploadable.ch/file/x9938CyBWEGU/aldd1hd.part16.rar
http://www.uploadable.ch/file/ByhaVkVPUqSm/aldd1hd.part17.rar
http://www.uploadable.ch/file/ruFSfxVmZt4G/aldd1hd.part18.rar
http://www.uploadable.ch/file/v5p9SDkxZgCD/aldd1hd.part19.rar
http://www.uploadable.ch/file/a9ejuGBq3x59/aldd1hd.part20.rar
http://www.uploadable.ch/file/cgvZuE3aeYHT/aldd1hd.part21.rar
« Última modificación: Noviembre 29, 2014, 05:31:40 am por zolo »

Desconectado pomposos

  • Gran Experto
  • *****
  • Mensajes: 4456
Alien 3 [1992][Full 1080]
« Respuesta #1 en: Noviembre 23, 2014, 03:02:00 pm »

Código: You are not allowed to view links. Register or Login
http://www.imdb.com/title/tt0103644/
TITULO ORIGINAL Alien 3
ANO 1992
DURACION 115 min.
PAIS USA
DIRECTOR David Fincher
GUION Walter Hill, David Giler (Argumento: Vincent Ward)
MUSICA Elliot Goldenthal
FOTOGRAFIA Alex Thomson
REPARTO Sigourney Weaver, Charles S. Dutton, Charles Dance, Paul McGann, Brian Glover, Lance Henriksen, Ralph Brown, Danny Webb, Pete Postlethwaite
PRODUCTORA 20th Century Fox / Brandywine Productions
PREMIOS 1992: Nominada al Oscar: Mejores efectos visuales
 1992: Nominada BAFTA: Mejores efectos visuales
GENERO Ciencia ficcion. Terror | Aventura espacial. Extraterrestres. Drama carcelario. Secuela
SINOPSIS Tras conseguir escapar con Newt y Bishop de un planeta alienigena, la teniente Ellen Ripley (Sigourney Weaver) recala accidentalmente en Fiorna 161, una carcel galactica cuyos peligrosos reclusos estan absolutamente abandonados a su suerte.

Código: You are not allowed to view links. Register or Login
General
Complete name : Alien 3 (1992) 1080p FULL Dual.mkv
Format : Matroska
Format version : Version 4 / Version 2
File size : 4.94 GiB
Duration : 2h 24mn
Overall bit rate : 4 878 Kbps
Movie name : Aliens 3 [1992][1080p FULL Dual]
Encoded date : UTC 2014-09-14 07:31:46
Writing application : mkvmerge v6.9.1 ('Blue Panther') 64bit built on Apr 18 2014 18:23:38
Writing library : libebml v1.3.0 + libmatroska v1.4.1
Video
ID : 1
Format : AVC
Format/Info : Advanced Video Codec
Format profile : High@L4.1
Format settings, CABAC : Yes
Format settings, ReFrames : 2 frames
Codec ID : V_MPEG4/ISO/AVC
Duration : 2h 24mn
Bit rate : 4 000 Kbps
Width : 1 920 pixels
Height : 1 080 pixels
Display aspect ratio : 16:9
Frame rate mode : Constant
Frame rate : 23.976 fps
Color space : YUV
Chroma subsampling : 4:2:0
Bit depth : 8 bits
Scan type : Progressive
Bits/(Pixel*Frame) : 0.080
Stream size : 3.93 GiB (80%)
Writing library : x264 core 142
Default : Yes
Forced : No
Color primaries : BT.709
Transfer characteristics : BT.709
Matrix coefficients : BT.709
Audio #1
ID : 2
Format : AC-3
Format/Info : Audio Coding 3
Mode extension : CM (complete main)
Format settings, Endianness : Big
Codec ID : A_AC3
Duration : 2h 24mn
Bit rate mode : Constant
Bit rate : 448 Kbps
Channel(s) : 6 channels
Channel positions : Front: L C R, Side: L R, LFE
Sampling rate : 48.0 KHz
Bit depth : 16 bits
Compression mode : Lossy
Stream size : 464 MiB (9%)
Title : Español Latino
Default : Yes
Forced : No
Audio #2
ID : 3
Format : AC-3
Format/Info : Audio Coding 3
Mode extension : CM (complete main)
Format settings, Endianness : Big
Codec ID : A_AC3
Duration : 2h 24mn
Bit rate mode : Constant
Bit rate : 448 Kbps
Channel(s) : 6 channels
Channel positions : Front: L C R, Side: L R, LFE
Sampling rate : 48.0 KHz
Bit depth : 16 bits
Compression mode : Lossy
Stream size : 464 MiB (9%)
Title : Ingles
Default : No
Forced : No
Text #1
ID : 4
Format : UTF-8
Codec ID : S_TEXT/UTF8
Codec ID/Info : UTF-8 Plain Text
Default : Yes
Forced : No
Text #2
ID : 5
Format : VobSub
Muxing mode : zlib
Codec ID : S_VOBSUB
Codec ID/Info : The same subtitle format used on DVDs
Title : Subtitulos Español
Default : No
Forced : No
Text #3
ID : 6
Format : VobSub
Muxing mode : zlib
Codec ID : S_VOBSUB
Codec ID/Info : The same subtitle format used on DVDs
Title : Subtitulos Ingles
Default : No
Forced : No









Código: You are not allowed to view links. Register or Login
http://www.uploadable.ch/file/MYPmkczeTZqX/aldd3hd.part01.rar
http://www.uploadable.ch/file/7NhYQZ6XEQpC/aldd3hd.part02.rar
http://www.uploadable.ch/file/KXfrZhzftRg7/aldd3hd.part03.rar
http://www.uploadable.ch/file/vHMUt55h4gma/aldd3hd.part04.rar
http://www.uploadable.ch/file/8q5s3kMVy2z9/aldd3hd.part05.rar
http://www.uploadable.ch/file/tT4Byb2rvSXP/aldd3hd.part06.rar
http://www.uploadable.ch/file/FGypt2tDnzZ6/aldd3hd.part07.rar
http://www.uploadable.ch/file/GHSReur32Y7r/aldd3hd.part08.rar
http://www.uploadable.ch/file/VcBJ7uZQuYyV/aldd3hd.part09.rar
http://www.uploadable.ch/file/xn8w7n5ETErE/aldd3hd.part10.rar
http://www.uploadable.ch/file/xMMp8peFrDAk/aldd3hd.part11.rar
http://www.uploadable.ch/file/X4VmP7mJE6G3/aldd3hd.part12.rar
http://www.uploadable.ch/file/KtAeRn8uHV86/aldd3hd.part13.rar
http://www.uploadable.ch/file/YcRxfXCADyqh/aldd3hd.part14.rar
http://www.uploadable.ch/file/MaCVfRsGsTDj/aldd3hd.part15.rar
http://www.uploadable.ch/file/b8C9nZhf6ZEb/aldd3hd.part16.rar
http://www.uploadable.ch/file/YJyDGUecpESb/aldd3hd.part17.rar
http://www.uploadable.ch/file/m5mQwTAzeceH/aldd3hd.part18.rar
http://www.uploadable.ch/file/uyUEZxpumeaE/aldd3hd.part19.rar
http://www.uploadable.ch/file/B82MmHbvz6Kw/aldd3hd.part20.rar
http://www.uploadable.ch/file/e5AVrSspkc8c/aldd3hd.part21.rar

Desconectado pomposos

  • Gran Experto
  • *****
  • Mensajes: 4456
Alien Resurrection [1997][Full 1080]
« Respuesta #2 en: Noviembre 23, 2014, 03:13:14 pm »

Código: You are not allowed to view links. Register or Login
http://www.imdb.com/title/tt0118583/
TITULO ORIGINAL Alien Resurrection
ANO 1997
DURACION 108 min.
PAIS USA
DIRECTOR Jean-Pierre Jeunet
GUION Joss Whedon (Personajes: Dan O'Bannon & Ronald Shusett)
MUSICA John Frizzell
FOTOGRAFIA Darius Khondji
REPARTO Sigourney Weaver, Winona Ryder, Ron Perlman, Dan Hedaya, J.E. Freeman, Brad Dourif, Michael Wincott, Leland Orser, Raymond Cruz, Dominique Pinon, Gary Dourdan
PRODUCTORA 20th Century Fox / Brandywine Productions
GENERO Ciencia ficcion. Terror | Extraterrestres. Secuela
SINOPSIS Mas de doscientos anos despues de su muerte, Ripley (Sigourney Weaver) es resucitada empleando tecnicas avanzadas de clonacion. Pero el ADN de Ripley se ha mezclado con el de la Reina Alien durante el proceso, por lo que los cientificos pretenden recrearla tambien. Ripley comienza entonces a desarrollar ciertas caracteristicas del peligroso alienigena..

Código: You are not allowed to view links. Register or Login
General
Complete name : Alien 4 (1997) 1080p FULL Dual.mkv
Format : Matroska
Format version : Version 4 / Version 2
File size : 4.98 GiB
Duration : 1h 56mn
Overall bit rate : 6 138 Kbps
Movie name : Alien Resurrection [1997][1080p FULL Dual]
Encoded date : UTC 2014-09-14 07:49:54
Writing application : mkvmerge v6.9.1 ('Blue Panther') 64bit built on Apr 18 2014 18:23:38
Writing library : libebml v1.3.0 + libmatroska v1.4.1
Video
ID : 1
Format : AVC
Format/Info : Advanced Video Codec
Format profile : High@L4.1
Format settings, CABAC : Yes
Format settings, ReFrames : 2 frames
Codec ID : V_MPEG4/ISO/AVC
Duration : 1h 56mn
Bit rate : 5 120 Kbps
Nominal bit rate : 5 384 Kbps
Width : 1 920 pixels
Height : 1 080 pixels
Display aspect ratio : 16:9
Frame rate mode : Constant
Frame rate : 23.976 fps
Color space : YUV
Chroma subsampling : 4:2:0
Bit depth : 8 bits
Scan type : Progressive
Bits/(Pixel*Frame) : 0.103
Stream size : 4.15 GiB (83%)
Writing library : x264 core 142
Default : Yes
Forced : No
Color primaries : BT.709
Transfer characteristics : BT.709
Matrix coefficients : BT.709
Audio #1
ID : 2
Format : AC-3
Format/Info : Audio Coding 3
Mode extension : CM (complete main)
Format settings, Endianness : Big
Codec ID : A_AC3
Duration : 1h 56mn
Bit rate mode : Constant
Bit rate : 448 Kbps
Channel(s) : 6 channels
Channel positions : Front: L C R, Side: L R, LFE
Sampling rate : 48.0 KHz
Bit depth : 16 bits
Compression mode : Lossy
Stream size : 372 MiB (7%)
Title : Español Latino
Default : Yes
Forced : No
Audio #2
ID : 3
Format : AC-3
Format/Info : Audio Coding 3
Mode extension : CM (complete main)
Format settings, Endianness : Big
Codec ID : A_AC3
Duration : 1h 56mn
Bit rate mode : Constant
Bit rate : 448 Kbps
Channel(s) : 6 channels
Channel positions : Front: L C R, Side: L R, LFE
Sampling rate : 48.0 KHz
Bit depth : 16 bits
Compression mode : Lossy
Stream size : 372 MiB (7%)
Title : Ingles
Default : No
Forced : No
Text #1
ID : 4
Format : UTF-8
Codec ID : S_TEXT/UTF8
Codec ID/Info : UTF-8 Plain Text
Default : Yes
Forced : No
Text #2
ID : 5
Format : VobSub
Muxing mode : zlib
Codec ID : S_VOBSUB
Codec ID/Info : The same subtitle format used on DVDs
Title : Subtitulos Español
Default : No
Forced : No
Text #3
ID : 6
Format : VobSub
Muxing mode : zlib
Codec ID : S_VOBSUB
Codec ID/Info : The same subtitle format used on DVDs
Title : Subtitulos Ingles
Default : No
Forced : No









Código: You are not allowed to view links. Register or Login
http://www.uploadable.ch/file/SNyXgr9KkUh8/aldd4hd.part01.rar
http://www.uploadable.ch/file/HxgT2KqrTfEB/aldd4hd.part02.rar
http://www.uploadable.ch/file/mZ3mWq5H7rK2/aldd4hd.part03.rar
http://www.uploadable.ch/file/8VmVh9J94CpB/aldd4hd.part04.rar
http://www.uploadable.ch/file/A7yM5FkQNhnP/aldd4hd.part05.rar
http://www.uploadable.ch/file/9cTVpuNT6xNW/aldd4hd.part06.rar
http://www.uploadable.ch/file/KYr4pe3Xu2xw/aldd4hd.part07.rar
http://www.uploadable.ch/file/SFFq3BNgtq6W/aldd4hd.part08.rar
http://www.uploadable.ch/file/BtNKrtpM4hXQ/aldd4hd.part09.rar
http://www.uploadable.ch/file/eBqkPU9ueDhy/aldd4hd.part10.rar
http://www.uploadable.ch/file/2AEnkC9kWFZn/aldd4hd.part11.rar
http://www.uploadable.ch/file/SGUddnZJk9wK/aldd4hd.part12.rar
http://www.uploadable.ch/file/kRNy3T335huB/aldd4hd.part13.rar
http://www.uploadable.ch/file/wJyzUZmTwSGK/aldd4hd.part14.rar
http://www.uploadable.ch/file/4J9A6uaGjn7r/aldd4hd.part15.rar
http://www.uploadable.ch/file/fYQDsrGuCaHy/aldd4hd.part16.rar
http://www.uploadable.ch/file/uZmH2ySaZdBb/aldd4hd.part17.rar
http://www.uploadable.ch/file/FchM4hyaBaTt/aldd4hd.part18.rar
http://www.uploadable.ch/file/Hakx5jdupubK/aldd4hd.part19.rar
http://www.uploadable.ch/file/vuteZcGW39gZ/aldd4hd.part20.rar
http://www.uploadable.ch/file/ReCEu6dXbQHR/aldd4hd.part21.rar

Desconectado pomposos

  • Gran Experto
  • *****
  • Mensajes: 4456
Alien vs.Predator [2004][Full 1080]
« Respuesta #3 en: Noviembre 23, 2014, 03:24:28 pm »

Código: You are not allowed to view links. Register or Login
http://www.imdb.com/title/tt0370263/
Titulo original AVP: Alien vs. Predator
Ano 2004
Duracion 100 min.
Pais Estados Unidos
Director Paul W.S. Anderson
Guion Paul W.S. Anderson, Shane Salerno
Musica Harald Kloser
Fotografia David Johnson
Reparto Sanaa Lathan, Raoul Bova, Lance Henriksen, Ewen Bremner, Colin Salmon, Agathe De La Boulaye, Tommy Flanagan, Carsten Norgaard, Joseph Rye, Tom Woodruff Jr., Adrian Bouchet, Ian Whyte, Sam Troughton
Productora 20th Century Fox / Brandywine Productions
Genero Ciencia ficcion. Terror. Fantastico. Accion | Extraterrestres. Comic. Spin-off
Sinopsis El descubrimiento de una antigua piramide enterrada en la Antartida lleva a un grupo de cientificos y aventureros al continente helado. Alli' haran un terrorifico descubrimiento: dos violentas e implacables razas alienigenas libran entre si' la ultima batalla. Poco importa quien gane... nosotros perderemos.

Código: You are not allowed to view links. Register or Login
General
Complete name : Alien vs Predator 1 (2004) 1080p FULL Dual.mkv
Format : Matroska
Format version : Version 4 / Version 2
File size : 3.69 GiB
Duration : 1h 48mn
Overall bit rate : 4 868 Kbps
Movie name : AVP: Alien vs. Predator [2004][1080p FULL Dual]
Encoded date : UTC 2014-09-13 19:16:18
Writing application : mkvmerge v6.9.1 ('Blue Panther') 64bit built on Apr 18 2014 18:23:38
Writing library : libebml v1.3.0 + libmatroska v1.4.1
Video
ID : 1
Format : AVC
Format/Info : Advanced Video Codec
Format profile : High@L4.0
Format settings, CABAC : Yes
Format settings, ReFrames : 4 frames
Codec ID : V_MPEG4/ISO/AVC
Duration : 1h 48mn
Bit rate : 4 030 Kbps
Width : 1 920 pixels
Height : 1 080 pixels
Display aspect ratio : 16:9
Frame rate mode : Constant
Frame rate : 23.976 fps
Color space : YUV
Chroma subsampling : 4:2:0
Bit depth : 8 bits
Scan type : Progressive
Bits/(Pixel*Frame) : 0.081
Stream size : 2.94 GiB (80%)
Writing library : x264 core 130 r2273 b3065e6
Default : Yes
Forced : No
Color primaries : BT.709
Transfer characteristics : BT.709
Matrix coefficients : BT.709
Audio #1
ID : 2
Format : AC-3
Format/Info : Audio Coding 3
Mode extension : CM (complete main)
Format settings, Endianness : Big
Codec ID : A_AC3
Duration : 1h 48mn
Bit rate mode : Constant
Bit rate : 448 Kbps
Channel(s) : 6 channels
Channel positions : Front: L C R, Side: L R, LFE
Sampling rate : 48.0 KHz
Bit depth : 16 bits
Compression mode : Lossy
Stream size : 348 MiB (9%)
Title : Espanol Latino
Default : Yes
Forced : No
Audio #2
ID : 3
Format : AC-3
Format/Info : Audio Coding 3
Mode extension : CM (complete main)
Format settings, Endianness : Big
Codec ID : A_AC3
Duration : 1h 48mn
Bit rate mode : Constant
Bit rate : 448 Kbps
Channel(s) : 6 channels
Channel positions : Front: L C R, Side: L R, LFE
Sampling rate : 48.0 KHz
Bit depth : 16 bits
Compression mode : Lossy
Stream size : 348 MiB (9%)
Title : Ingles
Default : No
Forced : No
Text #1
ID : 4
Format : UTF-8
Codec ID : S_TEXT/UTF8
Codec ID/Info : UTF-8 Plain Text
Default : Yes
Forced : No
Text #2
ID : 5
Format : PGS
Muxing mode : zlib
Codec ID : S_HDMV/PGS
Codec ID/Info : The same subtitle format used on BDs/HD-DVDs
Title : Subtitulos Espanol
Default : No
Forced : No
Text #3
ID : 6
Format : PGS
Muxing mode : zlib
Codec ID : S_HDMV/PGS
Codec ID/Info : The same subtitle format used on BDs/HD-DVDs
Title : Subtitulos Ingles
Default : No
Forced : No









Código: You are not allowed to view links. Register or Login
http://www.uploadable.ch/file/Y76FfvtqUWSc/aldep1hd.part01.rar
http://www.uploadable.ch/file/8pfsdQdUuXmB/aldep1hd.part02.rar
http://www.uploadable.ch/file/KB7v5AUcsM7R/aldep1hd.part03.rar
http://www.uploadable.ch/file/3MABgnpuxq4C/aldep1hd.part04.rar
http://www.uploadable.ch/file/VcEEYZ5b34kn/aldep1hd.part05.rar
http://www.uploadable.ch/file/CCmUqt9nAGwe/aldep1hd.part06.rar
http://www.uploadable.ch/file/p8Wfuuc3BCnM/aldep1hd.part07.rar
http://www.uploadable.ch/file/YDNAxHrSZF6W/aldep1hd.part08.rar
http://www.uploadable.ch/file/gmB42zeM7Suf/aldep1hd.part09.rar
http://www.uploadable.ch/file/3Um8CbUV2Q6q/aldep1hd.part10.rar
http://www.uploadable.ch/file/JnBA9GTxXden/aldep1hd.part11.rar
http://www.uploadable.ch/file/HjNqJ4sCn4dj/aldep1hd.part12.rar
http://www.uploadable.ch/file/HPQMRxtPrVuq/aldep1hd.part13.rar
http://www.uploadable.ch/file/zJ7m6PF2xXcK/aldep1hd.part14.rar
http://www.uploadable.ch/file/9Cvy2bDKMf6a/aldep1hd.part15.rar
http://www.uploadable.ch/file/WW75fj7X7NAA/aldep1hd.part16.rar

Desconectado pomposos

  • Gran Experto
  • *****
  • Mensajes: 4456
Aliens [1986][Full 1080]
« Respuesta #4 en: Noviembre 23, 2014, 03:35:47 pm »

Código: You are not allowed to view links. Register or Login
http://www.imdb.com/title/tt0090605/
TITULO ORIGINAL Aliens
ANO 1986
PAIS USA
DIRECTOR James Cameron
GUION James Cameron (Historia: James Cameron, David Giler, Walter Hill. Personajes: Dan O'Bannon, Ronald Shusett)
MUSICA James Horner
FOTOGRAFIA Adrian Biddle
REPARTO Sigourney Weaver, Paul Reiser, Lance Henriksen, Michael Biehn, Bill Paxton, Carrie Henn, William Hope, Jenette Goldstein, Al Matthews, Mark Rolston, Ricco Ross
PRODUCTORA 20th Century Fox / Brandywine Productions
PREMIOS 1986: 2 Oscars: Efectos visuales, Efectos de sonido. 5 nominaciones.
 1986: Nominada al Globo de Oro: Mejor actriz en drama (Sigourney Weaver).
 1986: BAFTA: Mejores efectos visuales. 3 nominaciones.
GENERO Ciencia ficcion. Accion | Extraterrestres. Secuela. Pelicula de culto
SINOPSIS Alien es un organismo perfecto, una maquina de matar cuya superioridad fisica solo puede competir con su agresividad. La oficial Ripley y la tripulacion de la nave "Nostromo" se habian enfrentado, en el pasado, a esa monstruosa criatura. Y solo Ripley sobrevivio' a la masacre. Despues de vagar por el espacio durante varios anos, Ripley fue rescatada. Durante ese tiempo, el planeta de Alien ha sido colonizado. Pero, de repente, se pierde la comunicacion con la colonia y, para investigar los motivos, se envia una expedicion de marines espaciales, capitaneados por Ripley. Alli' les esperan miles de espeluznantes criaturas. Alien se ha reproducido y esta vez la lucha es por la supervivencia de la Humanidad.

Código: You are not allowed to view links. Register or Login
General
Complete name : Alien 2 (1986) 1080p FULL Dual.mkv
Format : Matroska
Format version : Version 4 / Version 2
File size : 4.96 GiB
Duration : 2h 17mn
Overall bit rate : 5 179 Kbps
Movie name : Aliens 2 [1986][1080p FULL Dual]
Encoded date : UTC 2014-09-13 23:16:51
Writing application : mkvmerge v6.9.1 ('Blue Panther') 64bit built on Apr 18 2014 18:23:38
Writing library : libebml v1.3.0 + libmatroska v1.4.1
Video
ID : 1
Format : AVC
Format/Info : Advanced Video Codec
Format profile : High@L4.1
Format settings, CABAC : Yes
Format settings, ReFrames : 2 frames
Format settings, GOP : M=3, N=24
Codec ID : V_MPEG4/ISO/AVC
Duration : 2h 17mn
Bit rate : 4 327 Kbps
Width : 1 920 pixels
Height : 1 080 pixels
Display aspect ratio : 16:9
Frame rate mode : Constant
Frame rate : 23.976 fps
Color space : YUV
Chroma subsampling : 4:2:0
Bit depth : 8 bits
Scan type : Progressive
Bits/(Pixel*Frame) : 0.087
Stream size : 4.01 GiB (81%)
Writing library : x264 core 142
Default : Yes
Forced : No
Color primaries : BT.709
Transfer characteristics : BT.709
Matrix coefficients : BT.709
Audio #1
ID : 2
Format : AC-3
Format/Info : Audio Coding 3
Mode extension : CM (complete main)
Format settings, Endianness : Big
Codec ID : A_AC3
Duration : 2h 17mn
Bit rate mode : Constant
Bit rate : 448 Kbps
Channel(s) : 6 channels
Channel positions : Front: L C R, Side: L R, LFE
Sampling rate : 48.0 KHz
Bit depth : 16 bits
Compression mode : Lossy
Stream size : 440 MiB (9%)
Title : Español Latino
Default : Yes
Forced : No
Audio #2
ID : 3
Format : AC-3
Format/Info : Audio Coding 3
Mode extension : CM (complete main)
Format settings, Endianness : Big
Codec ID : A_AC3
Duration : 2h 17mn
Bit rate mode : Constant
Bit rate : 448 Kbps
Channel(s) : 6 channels
Channel positions : Front: L C R, Side: L R, LFE
Sampling rate : 48.0 KHz
Bit depth : 16 bits
Compression mode : Lossy
Stream size : 440 MiB (9%)
Title : Ingles
Default : No
Forced : No
Text #1
ID : 4
Format : UTF-8
Codec ID : S_TEXT/UTF8
Codec ID/Info : UTF-8 Plain Text
Default : Yes
Forced : No
Text #2
ID : 5
Format : VobSub
Muxing mode : zlib
Codec ID : S_VOBSUB
Codec ID/Info : The same subtitle format used on DVDs
Title : Subtitulos Español
Default : No
Forced : No
Text #3
ID : 6
Format : VobSub
Muxing mode : zlib
Codec ID : S_VOBSUB
Codec ID/Info : The same subtitle format used on DVDs
Title : Subtitulos Ingles
Default : No
Forced : No









Código: You are not allowed to view links. Register or Login
http://www.uploadable.ch/file/45wPKa5y8D9Q/aldd2hd.part01.rar
http://www.uploadable.ch/file/nkx7etxvSp6H/aldd2hd.part02.rar
http://www.uploadable.ch/file/F4s4CpwgzhBQ/aldd2hd.part03.rar
http://www.uploadable.ch/file/A4V8EYFFU2zD/aldd2hd.part04.rar
http://www.uploadable.ch/file/C4EQjbEJB4bn/aldd2hd.part05.rar
http://www.uploadable.ch/file/wxPG9wqrmkex/aldd2hd.part06.rar
http://www.uploadable.ch/file/5SnUAZuWJEDw/aldd2hd.part07.rar
http://www.uploadable.ch/file/ZanmTFXsgvvv/aldd2hd.part08.rar
http://www.uploadable.ch/file/5EuQ4JMkkdBd/aldd2hd.part09.rar
http://www.uploadable.ch/file/Y2QZMWv8P9yT/aldd2hd.part10.rar
http://www.uploadable.ch/file/cC6QTN46FcVr/aldd2hd.part11.rar
http://www.uploadable.ch/file/QrFNSycPUb87/aldd2hd.part12.rar
http://www.uploadable.ch/file/4mFrFZUAEQ6v/aldd2hd.part13.rar
http://www.uploadable.ch/file/EPVuhsq3cv8a/aldd2hd.part14.rar
http://www.uploadable.ch/file/WmaypSfyYDDc/aldd2hd.part15.rar
http://www.uploadable.ch/file/c36kF7TWh45f/aldd2hd.part16.rar
http://www.uploadable.ch/file/rDvgjFf42nrn/aldd2hd.part17.rar
http://www.uploadable.ch/file/3bR8gFusXWPn/aldd2hd.part18.rar
http://www.uploadable.ch/file/s6ZpTd5qkBZp/aldd2hd.part19.rar
http://www.uploadable.ch/file/jUnAvWGGMVXx/aldd2hd.part20.rar
http://www.uploadable.ch/file/ZQzEDRTMJCqm/aldd2hd.part21.rar

Tags:
Tags:

 


SMF 2.0.11 | SMF © 2015, Simple Machines
Paginas Afiliadas
Twitter - FaceBook - Daraxblog
Designed by Smf Personal