Bienvenido a Tecnohackers

Tecnohackers » Cultura y Ocio » Mundo Cine » Joyas del Cine
 » 

Police Academy - Saga Completa



Autor Tema: Police Academy - Saga Completa  (Leído 354 veces)

Desconectado pomposos

  • Gran Experto
  • *****
  • Mensajes: 4456
Police Academy - Saga Completa
« en: Octubre 07, 2014, 07:26:31 am »


TITULO ORIGINAL Police Academy
ANO 1984
PAIS USA
DIRECTOR Hugh Wilson
GUION Neal Israel, Pat Proft, Hugh Wilson
MUSICA Robert Folk
FOTOGRAFIA Michael D. Margulies
REPARTO Steve Guttenberg, Kim Cattrall, Bubba Smith, G.W. Bailey, Donovan Scott, George Gaynes, Andrew Rubin, David Graf, Leslie Easterbrook, Michael Winslow, Debralee Scott, Bruce Mahler, Ted Ross, Scott Thomson, Brant Von Hoffman
PRODUCTORA Warner Bros. Pictures
GENERO Comedia | Comedia absurda. Policiaco
SINOPSIS En la academia de policia, un grupo de veteranos estan a punto de finalizar las pruebas de ingreso en el cuerpo. Durante cierto tiempo, coinciden con los novatos, que seran el blanco de un monton de bromas muy pesadas.

Código: You are not allowed to view links. Register or Login
General
Police Academy (1984) [FULL 1080p Dual]
Format : Matroska
Format version : Version 4 / Version 2
File size : 2.38 GiB
Duration : 1h 36mn
Overall bit rate : 3 534 Kbps
Movie name : Police Academy (1984) [FULL 1080p Dual]
Encoded date : UTC 2014-01-28 13:46:12
Writing application : mkvmerge v6.0.0 ('Coming Up For Air') built on Jan 20 2013 09:52:00
Writing library : libebml v1.3.0 + libmatroska v1.4.0
Video
ID : 1
Format : AVC
Format/Info : Advanced Video Codec
Format profile : High@L4.1
Format settings, CABAC : Yes
Format settings, ReFrames : 2 frames
Codec ID : V_MPEG4/ISO/AVC
Duration : 1h 36mn
Bit rate : 2 952 Kbps
Width : 1 920 pixels
Height : 1 080 pixels
Display aspect ratio : 16:9
Frame rate mode : Constant
Frame rate : 23.976 fps
Color space : YUV
Chroma subsampling : 4:2:0
Bit depth : 8 bits
Scan type : Progressive
Bits/(Pixel*Frame) : 0.059
Stream size : 1.99 GiB (84%)
Writing library : x264 core
Default : Yes
Forced : No
Color primaries : BT.709
Transfer characteristics : BT.709
Matrix coefficients : BT.709
Audio #1
ID : 2
Format : AC-3
Format/Info : Audio Coding 3
Mode extension : CM (complete main)
Format settings, Endianness : Big
Codec ID : A_AC3
Duration : 1h 36mn
Bit rate mode : Constant
Bit rate : 192 Kbps
Channel count : 2 channels
Channel positions : Front: L R
Sampling rate : 48.0 KHz
Bit depth : 16 bits
Compression mode : Lossy
Stream size : 132 MiB (5%)
Title : Audio Latino
Default : Yes
Forced : No
Audio #2
ID : 3
Format : AC-3
Format/Info : Audio Coding 3
Mode extension : CM (complete main)
Format settings, Endianness : Big
Codec ID : A_AC3
Duration : 1h 36mn
Bit rate mode : Constant
Bit rate : 320 Kbps
Channel count : 2 channels
Channel positions : Front: L R
Sampling rate : 44.1 KHz
Bit depth : 16 bits
Compression mode : Lossy
Stream size : 221 MiB (9%)
Title : Audio Ingles
Default : No
Forced : No
Text #1
ID : 4
Format : UTF-8
Codec ID : S_TEXT/UTF8
Codec ID/Info : UTF-8 Plain Text
Title : Subtitulos Latino
Default : No
Forced : No
Text #2
ID : 5
Format : UTF-8
Codec ID : S_TEXT/UTF8
Codec ID/Info : UTF-8 Plain Text
Title : Subtitulos Ingles
Default : No
Forced : No
Text #3
ID : 6
Format : UTF-8
Codec ID : S_TEXT/UTF8
Codec ID/Info : UTF-8 Plain Text
Default : Yes
Forced : No









Código: You are not allowed to view links. Register or Login
http://www.uploadable.ch/file/kkKVeqYf2gxN/polacd1hd.part01.rar
http://www.uploadable.ch/file/9WeVJB9P7UYT/polacd1hd.part02.rar
http://www.uploadable.ch/file/Yk6xA6ZSYSAf/polacd1hd.part03.rar
http://www.uploadable.ch/file/akmPj8uvXFfJ/polacd1hd.part04.rar
http://www.uploadable.ch/file/WyJhVhPzFbMA/polacd1hd.part05.rar
http://www.uploadable.ch/file/VgTvSDAgsu6m/polacd1hd.part06.rar
http://www.uploadable.ch/file/f8GNBdAFUG7D/polacd1hd.part07.rar
http://www.uploadable.ch/file/tMJGyDeQWkSh/polacd1hd.part08.rar
http://www.uploadable.ch/file/tMfDr4NBq4YG/polacd1hd.part09.rar
http://www.uploadable.ch/file/6W4JSvdcHXQE/polacd1hd.part10.rar

Desconectado pomposos

  • Gran Experto
  • *****
  • Mensajes: 4456
Police Academy 2 [1985][FullHD 1080]
« Respuesta #1 en: Octubre 07, 2014, 07:47:43 am »


TITULO ORIGINAL Police Academy 2: Their First Assignment
ANO 1985
PAIS USA
DIRECTOR Jerry Paris
GUION Barry Blaustein, David Sheffield (Personajes: Neal Israel & Pat Proft)
MUSICA Robert Folk
FOTOGRAFIA James Crabe
REPARTO Steve Guttenberg, Bubba Smith, David Graf, Michael Winslow, Bruce Mahler, Colleen Camp, Marion Ramsey, Howard Hesseman, George Gaynes, Bobcat Goldthwait, Tim Kazurinsky
PRODUCTORA Warner Bros.
GENERO Comedia | Policiaco. Crimen. Secuela
SINOPSIS Comedia disparatada que aprovecha el filon del exito de la primera parte. En esta los desastrosos novatos policias se enfrentaran ahora con su primera mision oficial en las calles.

Código: You are not allowed to view links. Register or Login
General
Police Academy 2 (1985) [FULL 1080p Dual]
Format : Matroska
Format version : Version 4 / Version 2
File size : 2.15 GiB
Duration : 1h 27mn
Overall bit rate : 3 531 Kbps
Movie name : Police Academy 2 (1985) [FULL 1080p Dual]
Encoded date : UTC 2014-01-28 13:53:56
Writing application : mkvmerge v6.0.0 ('Coming Up For Air') built on Jan 20 2013 09:52:00
Writing library : libebml v1.3.0 + libmatroska v1.4.0
Video
ID : 1
Format : AVC
Format/Info : Advanced Video Codec
Format profile : High@L4.1
Format settings, CABAC : Yes
Format settings, ReFrames : 2 frames
Codec ID : V_MPEG4/ISO/AVC
Duration : 1h 27mn
Bit rate : 2 949 Kbps
Width : 1 920 pixels
Height : 1 080 pixels
Display aspect ratio : 16:9
Frame rate mode : Constant
Frame rate : 23.976 fps
Color space : YUV
Chroma subsampling : 4:2:0
Bit depth : 8 bits
Scan type : Progressive
Bits/(Pixel*Frame) : 0.059
Stream size : 1.80 GiB (84%)
Writing library : x264 core
Default : Yes
Forced : No
Color primaries : BT.709
Transfer characteristics : BT.709
Matrix coefficients : BT.709
Audio #1
ID : 2
Format : AC-3
Format/Info : Audio Coding 3
Mode extension : CM (complete main)
Format settings, Endianness : Big
Codec ID : A_AC3
Duration : 1h 27mn
Bit rate mode : Constant
Bit rate : 192 Kbps
Channel count : 2 channels
Channel positions : Front: L R
Sampling rate : 48.0 KHz
Bit depth : 16 bits
Compression mode : Lossy
Stream size : 120 MiB (5%)
Title : Audio Latino
Default : Yes
Forced : No
Audio #2
ID : 3
Format : AC-3
Format/Info : Audio Coding 3
Mode extension : CM (complete main)
Format settings, Endianness : Big
Codec ID : A_AC3
Duration : 1h 27mn
Bit rate mode : Constant
Bit rate : 320 Kbps
Channel count : 1 channel
Channel positions : Front: C
Sampling rate : 44.1 KHz
Bit depth : 16 bits
Compression mode : Lossy
Stream size : 199 MiB (9%)
Title : Audio Ingles
Default : No
Forced : No
Text #1
ID : 4
Format : UTF-8
Codec ID : S_TEXT/UTF8
Codec ID/Info : UTF-8 Plain Text
Title : Subtitulos Latino
Default : No
Forced : No
Text #2
ID : 5
Format : UTF-8
Codec ID : S_TEXT/UTF8
Codec ID/Info : UTF-8 Plain Text
Title : Subtitulos Ingles
Default : No
Forced : No
Text #3
ID : 6
Format : UTF-8
Codec ID : S_TEXT/UTF8
Codec ID/Info : UTF-8 Plain Text
Default : Yes
Forced : No









Código: You are not allowed to view links. Register or Login
http://www.uploadable.ch/file/Btck7hU9KuPB/polacd2hd.part01.rar
http://www.uploadable.ch/file/4KekWQEfhuAf/polacd2hd.part02.rar
http://www.uploadable.ch/file/XHuFjqcu3mvz/polacd2hd.part03.rar
http://www.uploadable.ch/file/zMWFBcWJWbRa/polacd2hd.part04.rar
http://www.uploadable.ch/file/NSrxjdAB3Ky5/polacd2hd.part05.rar
http://www.uploadable.ch/file/3JCCzG4gM2HS/polacd2hd.part06.rar
http://www.uploadable.ch/file/K3Vtp7Gn3uBb/polacd2hd.part07.rar
http://www.uploadable.ch/file/MRj5UeBKPCBB/polacd2hd.part08.rar
http://www.uploadable.ch/file/Y59vFNsAuxQA/polacd2hd.part09.rar

Desconectado pomposos

  • Gran Experto
  • *****
  • Mensajes: 4456
Police Academy 3 [1986][FullHD 1080]
« Respuesta #2 en: Octubre 07, 2014, 08:08:57 am »


TITULO ORIGINAL Police Academy 3: Back in Training
ANO 1986
PAIS USA
DIRECTOR Jerry Paris
GUION Gene Quintano (Personajes: Neal Israel & Pat Proft)
MUSICA Robert Folk
FOTOGRAFIA Robert Saad
REPARTO Steve Guttenberg, Bubba Smith, David Graf, Michael Winslow, Marion Ramsey, Leslie Easterbrook, Art Metrano, George Gaynes, Bobcat Goldthwait, Tim Kazurinsky
PRODUCTORA Warner Bros. Pictures
GENERO Comedia | Policiaco. Crimen. Secuela
SINOPSIS La academia esta a punto de desaparecer. Para evitarlo, la unica solucion es luchar por su supervivencia contra su competidora, la academia del comandante Mauser

Código: You are not allowed to view links. Register or Login
General
Police Academy 3 (1986) [FULL 1080p Dual]
Format : Matroska
Format version : Version 4 / Version 2
File size : 2.07 GiB
Duration : 1h 23mn
Overall bit rate : 3 531 Kbps
Movie name : Police Academy 3 (1986) [FULL 1080p Dual]
Encoded date : UTC 2014-01-28 14:01:27
Writing application : mkvmerge v6.0.0 ('Coming Up For Air') built on Jan 20 2013 09:52:00
Writing library : libebml v1.3.0 + libmatroska v1.4.0
Video
ID : 1
Format : AVC
Format/Info : Advanced Video Codec
Format profile : High@L4.1
Format settings, CABAC : Yes
Format settings, ReFrames : 2 frames
Codec ID : V_MPEG4/ISO/AVC
Duration : 1h 23mn
Bit rate : 2 949 Kbps
Width : 1 920 pixels
Height : 1 080 pixels
Display aspect ratio : 16:9
Frame rate mode : Constant
Frame rate : 23.976 fps
Color space : YUV
Chroma subsampling : 4:2:0
Bit depth : 8 bits
Scan type : Progressive
Bits/(Pixel*Frame) : 0.059
Stream size : 1.72 GiB (84%)
Writing library : x264 core
Default : Yes
Forced : No
Color primaries : BT.709
Transfer characteristics : BT.709
Matrix coefficients : BT.709
Audio #1
ID : 2
Format : AC-3
Format/Info : Audio Coding 3
Mode extension : CM (complete main)
Format settings, Endianness : Big
Codec ID : A_AC3
Duration : 1h 23mn
Bit rate mode : Constant
Bit rate : 192 Kbps
Channel count : 2 channels
Channel positions : Front: L R
Sampling rate : 48.0 KHz
Bit depth : 16 bits
Compression mode : Lossy
Stream size : 115 MiB (5%)
Title : Audio Latino
Default : Yes
Forced : No
Audio #2
ID : 3
Format : AC-3
Format/Info : Audio Coding 3
Mode extension : CM (complete main)
Format settings, Endianness : Big
Codec ID : A_AC3
Duration : 1h 23mn
Bit rate mode : Constant
Bit rate : 320 Kbps
Channel count : 2 channels
Channel positions : Front: L R
Sampling rate : 44.1 KHz
Bit depth : 16 bits
Compression mode : Lossy
Stream size : 192 MiB (9%)
Title : Audio Ingles
Default : No
Forced : No
Text #1
ID : 4
Format : UTF-8
Codec ID : S_TEXT/UTF8
Codec ID/Info : UTF-8 Plain Text
Title : Subtitulos Latino
Default : No
Forced : No
Text #2
ID : 5
Format : UTF-8
Codec ID : S_TEXT/UTF8
Codec ID/Info : UTF-8 Plain Text
Title : Subtitulos Ingles
Default : No
Forced : No
Text #3
ID : 6
Format : UTF-8
Codec ID : S_TEXT/UTF8
Codec ID/Info : UTF-8 Plain Text
Default : Yes
Forced : No









Código: You are not allowed to view links. Register or Login
http://www.uploadable.ch/file/A98y3hRM8SQp/polact3hd.part01.rar
http://www.uploadable.ch/file/mDNWtzGDhwKK/polact3hd.part02.rar
http://www.uploadable.ch/file/7SG2fu2AEYvw/polact3hd.part03.rar
http://www.uploadable.ch/file/NeUvcxMKh3qp/polact3hd.part04.rar
http://www.uploadable.ch/file/bHdvenJUatQN/polact3hd.part05.rar
http://www.uploadable.ch/file/8JeUfYJQDCyP/polact3hd.part06.rar
http://www.uploadable.ch/file/nXPUwNm98rA6/polact3hd.part07.rar
http://www.uploadable.ch/file/AvXnZdTHBBWV/polact3hd.part08.rar
http://www.uploadable.ch/file/PhR8McJUhxBF/polact3hd.part09.rar

Desconectado pomposos

  • Gran Experto
  • *****
  • Mensajes: 4456
Police Academy 4 [1987][FullHD 1080]
« Respuesta #3 en: Octubre 07, 2014, 08:30:13 am »


TITULO ORIGINAL Police Academy 4: Citizens on Patrol
ANO 1987
PAIS USA
DIRECTOR Jim Drake
GUION Gene Quintano (Personajes: Neal Israel & Pat Proft)
MUSICA Robert Folk
FOTOGRAFIA Robert Saad
REPARTO Steve Guttenberg, Bubba Smith, David Graf, Michael Winslow, Sharon Stone, Marion Ramsey, Leslie Easterbrook, G.W. Bailey, George Gaynes, Tim Kazurinsky, Bobcat Goldthwait, David Spade
PRODUCTORA Warner Bros.
GENERO Comedia | Policiaco. Crimen. Secuela
SINOPSIS Reclutado por el comandante Lassard, un grupo de voluntarios llega a la Academia para ser formados en un programa de patrullas civiles.

Código: You are not allowed to view links. Register or Login
General
Police Academy 4 (1987) [FULL 1080p Dual]
Format : Matroska
Format version : Version 4 / Version 2
File size : 2.14 GiB
Duration : 1h 27mn
Overall bit rate : 3 513 Kbps
Movie name : Police Academy 4 (1987) [FULL 1080p Dual]
Encoded date : UTC 2014-01-28 14:22:23
Writing application : mkvmerge v6.0.0 (Coming Up For Air) built on Jan 20 2013 09:52:00
Writing library : libebml v1.3.0 + libmatroska v1.4.0
Video
ID : 1
Format : AVC
Format/Info : Advanced Video Codec
Format profile : High@L4.1
Format settings, CABAC : Yes
Format settings, ReFrames : 2 frames
Codec ID : V_MPEG4/ISO/AVC
Duration : 1h 27mn
Bit rate : 2 931 Kbps
Width : 1 920 pixels
Height : 1 080 pixels
Display aspect ratio : 16:9
Frame rate mode : Constant
Frame rate : 23.976 fps
Color space : YUV
Chroma subsampling : 4:2:0
Bit depth : 8 bits
Scan type : Progressive
Bits/(Pixel*Frame) : 0.059
Stream size : 1.79 GiB (83%)
Writing library : x264 core
Default : Yes
Forced : No
Color primaries : BT.709
Transfer characteristics : BT.709
Matrix coefficients : BT.709
Audio #1
ID : 2
Format : AC-3
Format/Info : Audio Coding 3
Mode extension : CM (complete main)
Format settings, Endianness : Big
Codec ID : A_AC3
Duration : 1h 27mn
Bit rate mode : Constant
Bit rate : 192 Kbps
Channel count : 2 channels
Channel positions : Front: L R
Sampling rate : 48.0 KHz
Bit depth : 16 bits
Compression mode : Lossy
Stream size : 120 MiB (5%)
Title : Audio Latino
Default : Yes
Forced : No
Audio #2
ID : 3
Format : AC-3
Format/Info : Audio Coding 3
Mode extension : CM (complete main)
Format settings, Endianness : Big
Codec ID : A_AC3
Duration : 1h 27mn
Bit rate mode : Constant
Bit rate : 320 Kbps
Channel count : 2 channels
Channel positions : Front: L R
Sampling rate : 44.1 KHz
Bit depth : 16 bits
Compression mode : Lossy
Stream size : 200 MiB (9%)
Title : Audio Ingles
Default : No
Forced : No
Text #1
ID : 4
Format : UTF-8
Codec ID : S_TEXT/UTF8
Codec ID/Info : UTF-8 Plain Text
Title : Subtitulos Latino
Default : No
Forced : No
Text #2
ID : 5
Format : UTF-8
Codec ID : S_TEXT/UTF8
Codec ID/Info : UTF-8 Plain Text
Title : Subtitulos Ingles
Default : No
Forced : No
Text #3
ID : 6
Format : UTF-8
Codec ID : S_TEXT/UTF8
Codec ID/Info : UTF-8 Plain Text
Default : Yes
Forced : No









Código: You are not allowed to view links. Register or Login
http://www.uploadable.ch/file/mkcsVXqy4B49/polacd4hd.part01.rar
http://www.uploadable.ch/file/WUb3vMem5g45/polacd4hd.part02.rar
http://www.uploadable.ch/file/Q7pVAqAaUtKv/polacd4hd.part03.rar
http://www.uploadable.ch/file/6YU7nVz5rm5V/polacd4hd.part04.rar
http://www.uploadable.ch/file/F5Jz5asvD9AX/polacd4hd.part05.rar
http://www.uploadable.ch/file/gRKZutYkpFzh/polacd4hd.part06.rar
http://www.uploadable.ch/file/f7sRj9vy6nWV/polacd4hd.part07.rar
http://www.uploadable.ch/file/4MGahnXTQFJ5/polacd4hd.part08.rar
http://www.uploadable.ch/file/kywgpbpxvP4a/polacd4hd.part09.rar

Desconectado pomposos

  • Gran Experto
  • *****
  • Mensajes: 4456
Police Academy 5 [1988][FullHD 1080]
« Respuesta #4 en: Octubre 07, 2014, 08:51:25 am »


TITULO ORIGINAL Police Academy 5: Assignment Miami Beach
ANO 1988
PAIS USA
DIRECTOR Alan Myerson
GUION Stephen J. Curwick (Personajes: Neal Israel & Pat Proft)
MUSICA Robert Folk
FOTOGRAFIA James Pergola
REPARTO Bubba Smith, David Graf, G.W. Bailey, Michael Winslow, Marion Ramsey, Leslie Easterbrook, Janet Jones, George Gaynes, Rene Auberjonois, Lance Kinsey
PRODUCTORA Warner Bros.
GENERO Comedia | Policiaco. Crimen. Secuela
SINOPSIS El viejo capitan Lassard, el jefe de la academia de policia, vuela a Miami para recibir un galardon. Con el tambien viaja el cinico capitan Harris, que desea ocupar su puesto. Harris quiere ocupar un buen sitio durante el evento, delante de toda la jerarquia policial. Al llegar al aeropuerto, Lassard confunde su bolsa de viaje.

Código: You are not allowed to view links. Register or Login
General
Police Academy 5 (1988) [FULL 1080p Dual]
Format : Matroska
Format version : Version 4 / Version 2
File size : 2.19 GiB
Duration : 1h 29mn
Overall bit rate : 3 493 Kbps
Movie name : Police Academy 5 (1988) [FULL 1080p Dual]
Encoded date : UTC 2014-01-28 14:26:17
Writing application : mkvmerge v6.0.0 (Coming Up For Air) built on Jan 20 2013 09:52:00
Writing library : libebml v1.3.0 + libmatroska v1.4.0
Video
ID : 1
Format : AVC
Format/Info : Advanced Video Codec
Format profile : High@L4.1
Format settings, CABAC : Yes
Format settings, ReFrames : 2 frames
Codec ID : V_MPEG4/ISO/AVC
Duration : 1h 29mn
Bit rate : 2 912 Kbps
Width : 1 920 pixels
Height : 1 080 pixels
Display aspect ratio : 16:9
Frame rate mode : Constant
Frame rate : 23.976 fps
Color space : YUV
Chroma subsampling : 4:2:0
Bit depth : 8 bits
Scan type : Progressive
Bits/(Pixel*Frame) : 0.059
Stream size : 1.83 GiB (83%)
Writing library : x264 core
Default : Yes
Forced : No
Color primaries : BT.709
Transfer characteristics : BT.709
Matrix coefficients : BT.709
Audio #1
ID : 2
Format : AC-3
Format/Info : Audio Coding 3
Mode extension : CM (complete main)
Format settings, Endianness : Big
Codec ID : A_AC3
Duration : 1h 29mn
Bit rate mode : Constant
Bit rate : 192 Kbps
Channel count : 2 channels
Channel positions : Front: L R
Sampling rate : 48.0 KHz
Bit depth : 16 bits
Compression mode : Lossy
Stream size : 123 MiB (5%)
Title : Audio Latino
Default : Yes
Forced : No
Audio #2
ID : 3
Format : AC-3
Format/Info : Audio Coding 3
Mode extension : CM (complete main)
Format settings, Endianness : Big
Codec ID : A_AC3
Duration : 1h 29mn
Bit rate mode : Constant
Bit rate : 320 Kbps
Channel count : 2 channels
Channel positions : Front: L R
Sampling rate : 44.1 KHz
Bit depth : 16 bits
Compression mode : Lossy
Stream size : 206 MiB (9%)
Title : Audio Ingles
Default : No
Forced : No
Text #1
ID : 4
Format : UTF-8
Codec ID : S_TEXT/UTF8
Codec ID/Info : UTF-8 Plain Text
Title : Subtitulos Latino
Default : No
Forced : No
Text #2
ID : 5
Format : UTF-8
Codec ID : S_TEXT/UTF8
Codec ID/Info : UTF-8 Plain Text
Title : Subtitulos Ingles
Default : No
Forced : No
Text #3
ID : 6
Format : UTF-8
Codec ID : S_TEXT/UTF8
Codec ID/Info : UTF-8 Plain Text
Default : Yes
Forced : No









Código: You are not allowed to view links. Register or Login
http://www.uploadable.ch/file/fNzWQSPX9bR6/polacd5hd.part01.rar
http://www.uploadable.ch/file/jvCGdHBkFvZu/polacd5hd.part02.rar
http://www.uploadable.ch/file/H48WhB5HKYYd/polacd5hd.part03.rar
http://www.uploadable.ch/file/sv5FjPRzCE5c/polacd5hd.part04.rar
http://www.uploadable.ch/file/xa4bZEKThFsT/polacd5hd.part05.rar
http://www.uploadable.ch/file/dhPUE3CEYrWK/polacd5hd.part06.rar
http://www.uploadable.ch/file/vbJDNkQXA82q/polacd5hd.part07.rar
http://www.uploadable.ch/file/QQknpP4ZqQjv/polacd5hd.part08.rar
http://www.uploadable.ch/file/CAcAHAC9MGg9/polacd5hd.part09.rar

Desconectado pomposos

  • Gran Experto
  • *****
  • Mensajes: 4456
Police Academy 6 [1989][FullHD 1080]
« Respuesta #5 en: Octubre 07, 2014, 09:12:38 am »


TITULO ORIGINAL Police Academy 6: City Under Seige
ANO 1989
PAIS USA
DIRECTOR Peter Bonerz
GUION Stephen J. Curwick (Personajes: Neal Israel & Pat Proft)
MUSICA Robert Folk
FOTOGRAFIA Charles Rosher Jr.
REPARTO Bubba Smith, David Graf, Michael Winslow, Marion Ramsey, Leslie Easterbrook, Kenneth Mars, George Gaynes, Lance Kinsey, G. W. Bailey, Allison Mack
PRODUCTORA Warner Bros.
GENERO Comedia | Policiaco. Crimen. Secuela
SINOPSIS El comandante Lassard y su variopinto equipo de policias son asignados a la dificil mision de detener a una banda de ladrones de bancos y joyerias que tiene aterrorizada a la ciudad. La banda, formada por tres delincuentes, cuyo exito criminal es inversamente proporcional a su inteligencia, son tambien la pesadilla del capitan Harris que, junto al comandante, no parara hasta detener al responsable ultimo de los robos, el malvado Mr. Big.

Código: You are not allowed to view links. Register or Login
General
Police Academy 6 (1989) [FULL 1080p Dual]
Format : Matroska
Format version : Version 4 / Version 2
File size : 2.04 GiB
Duration : 1h 23mn
Overall bit rate : 3 482 Kbps
Movie name : Police Academy 6 (1989) [FULL 1080p Dual]
Encoded date : UTC 2014-01-28 14:31:44
Writing application : mkvmerge v6.0.0 (Coming Up For Air) built on Jan 20 2013 09:52:00
Writing library : libebml v1.3.0 + libmatroska v1.4.0
Video
ID : 1
Format : AVC
Format/Info : Advanced Video Codec
Format profile : High@L4.1
Format settings, CABAC : Yes
Format settings, ReFrames : 2 frames
Codec ID : V_MPEG4/ISO/AVC
Duration : 1h 23mn
Bit rate : 2 901 Kbps
Width : 1 920 pixels
Height : 1 080 pixels
Display aspect ratio : 16:9
Frame rate mode : Constant
Frame rate : 23.976 fps
Color space : YUV
Chroma subsampling : 4:2:0
Bit depth : 8 bits
Scan type : Progressive
Bits/(Pixel*Frame) : 0.058
Stream size : 1.70 GiB (83%)
Writing library : x264 core
Default : Yes
Forced : No
Color primaries : BT.709
Transfer characteristics : BT.709
Matrix coefficients : BT.709
Audio #1
ID : 2
Format : AC-3
Format/Info : Audio Coding 3
Mode extension : CM (complete main)
Format settings, Endianness : Big
Codec ID : A_AC3
Duration : 1h 23mn
Bit rate mode : Constant
Bit rate : 192 Kbps
Channel count : 2 channels
Channel positions : Front: L R
Sampling rate : 48.0 KHz
Bit depth : 16 bits
Compression mode : Lossy
Stream size : 115 MiB (6%)
Title : Audio Latino
Default : Yes
Forced : No
Audio #2
ID : 3
Format : AC-3
Format/Info : Audio Coding 3
Mode extension : CM (complete main)
Format settings, Endianness : Big
Codec ID : A_AC3
Duration : 1h 23mn
Bit rate mode : Constant
Bit rate : 320 Kbps
Channel count : 2 channels
Channel positions : Front: L R
Sampling rate : 44.1 KHz
Bit depth : 16 bits
Compression mode : Lossy
Stream size : 192 MiB (9%)
Title : Audio Ingles
Default : No
Forced : No
Text #1
ID : 4
Format : UTF-8
Codec ID : S_TEXT/UTF8
Codec ID/Info : UTF-8 Plain Text
Title : Subtitulos Latino
Default : No
Forced : No
Text #2
ID : 5
Format : UTF-8
Codec ID : S_TEXT/UTF8
Codec ID/Info : UTF-8 Plain Text
Title : Subtitulos Ingles
Default : No
Forced : No
Text #3
ID : 6
Format : UTF-8
Codec ID : S_TEXT/UTF8
Codec ID/Info : UTF-8 Plain Text
Default : Yes
Forced : No









Código: You are not allowed to view links. Register or Login
http://www.uploadable.ch/file/BPNveq7WwWTP/polacd6hd.part01.rar
http://www.uploadable.ch/file/UmP7wRZVNqRX/polacd6hd.part02.rar
http://www.uploadable.ch/file/69jnYBhU8Aq3/polacd6hd.part03.rar
http://www.uploadable.ch/file/55ZfNvWejFnD/polacd6hd.part04.rar
http://www.uploadable.ch/file/YavgQM4qrt7w/polacd6hd.part05.rar
http://www.uploadable.ch/file/pcPY4sYKCCtn/polacd6hd.part06.rar
http://www.uploadable.ch/file/ew6X8qC2ZnB6/polacd6hd.part07.rar
http://www.uploadable.ch/file/aDq628B4nAxP/polacd6hd.part08.rar
http://www.uploadable.ch/file/tDfWjDuEsbSQ/polacd6hd.part09.rar

Desconectado pomposos

  • Gran Experto
  • *****
  • Mensajes: 4456
Police Academy 7 [1994][FullHD 1080]
« Respuesta #6 en: Octubre 07, 2014, 09:33:51 am »


TITULO ORIGINAL Police Academy: Mission to Moscow
ANO 1994
PAIS USA
DIRECTOR Alan Metter
GUION Randolph Davis, Michele S. Chodos
MUSICA Robert Folk
FOTOGRAFIA Ian Jones
REPARTO George Gaynes, Michael Winslow, David Graf, Leslie Easterbrook, G.W. Bailey, Christopher Lee, Ron Perlman, Claire Forlani, Charlie Schlatter, Richard Israel
PRODUCTORA Warner Bros.
GENERO Comedia | Policiaco. Crimen. Secuela
SINOPSIS Ahora, los agentes mas famosos y peculiares de Florida viajan hasta Rusia para colaborar con la policia sovietica. El objetivo es atrapar a un criminal llamado Konali, que se ha hecho con un programa informatico capaz de controlar sofisticados sistemas de seguridad de todo el mundo, cometiendo robos en todo el planeta.

Código: You are not allowed to view links. Register or Login
General
Police Academy 7 (1994) [FULL 1080p Dual]
Format : Matroska
Format version : Version 4 / Version 2
File size : 2.01 GiB
Duration : 1h 22mn
Overall bit rate : 3 485 Kbps
Movie name : Police Academy 7 (1994) [FULL 1080p Dual]
Encoded date : UTC 2014-01-28 14:38:35
Writing application : mkvmerge v6.0.0 (Coming Up For Air) built on Jan 20 2013 09:52:00
Writing library : libebml v1.3.0 + libmatroska v1.4.0
Video
ID : 1
Format : AVC
Format/Info : Advanced Video Codec
Format profile : Main@L4.0
Format settings, CABAC : Yes
Format settings, ReFrames : 4 frames
Codec ID : V_MPEG4/ISO/AVC
Duration : 1h 22mn
Bit rate : 3 000 Kbps
Width : 1 920 pixels
Height : 1 080 pixels
Display aspect ratio : 16:9
Frame rate mode : Constant
Frame rate : 23.976 fps
Color space : YUV
Chroma subsampling : 4:2:0
Bit depth : 8 bits
Scan type : Progressive
Bits/(Pixel*Frame) : 0.060
Stream size : 1.68 GiB (83%)
Writing library : x264 core 130 r2273 b3065e6
Default : Yes
Forced : No
Color primaries : BT.709
Transfer characteristics : BT.709
Matrix coefficients : BT.709
Audio #1
ID : 2
Format : AC-3
Format/Info : Audio Coding 3
Mode extension : CM (complete main)
Format settings, Endianness : Big
Codec ID : A_AC3
Duration : 1h 22mn
Bit rate mode : Constant
Bit rate : 192 Kbps
Channel count : 2 channels
Channel positions : Front: L R
Sampling rate : 48.0 KHz
Bit depth : 16 bits
Compression mode : Lossy
Stream size : 114 MiB (6%)
Title : Audio Latino
Default : Yes
Forced : No
Audio #2
ID : 3
Format : AC-3
Format/Info : Audio Coding 3
Mode extension : CM (complete main)
Format settings, Endianness : Big
Codec ID : A_AC3
Duration : 1h 22mn
Bit rate mode : Constant
Bit rate : 320 Kbps
Channel count : 2 channels
Channel positions : Front: L R
Sampling rate : 44.1 KHz
Bit depth : 16 bits
Compression mode : Lossy
Stream size : 189 MiB (9%)
Title : Audio Ingles
Default : No
Forced : No
Text #1
ID : 4
Format : UTF-8
Codec ID : S_TEXT/UTF8
Codec ID/Info : UTF-8 Plain Text
Title : Subtitulos Latino
Default : No
Forced : No
Text #2
ID : 5
Format : UTF-8
Codec ID : S_TEXT/UTF8
Codec ID/Info : UTF-8 Plain Text
Title : Subtitulos Ingles
Default : No
Forced : No
Text #3
ID : 6
Format : UTF-8
Codec ID : S_TEXT/UTF8
Codec ID/Info : UTF-8 Plain Text
Default : Yes
Forced : No









Código: You are not allowed to view links. Register or Login
http://www.uploadable.ch/file/JCGV7BBspteW/polacd7hd.part01.rar
http://www.uploadable.ch/file/hKCEFCcvPeJj/polacd7hd.part02.rar
http://www.uploadable.ch/file/mEAYx7a2Utve/polacd7hd.part03.rar
http://www.uploadable.ch/file/ngv3FzZBUAGC/polacd7hd.part04.rar
http://www.uploadable.ch/file/zSfDFFJVqZ27/polacd7hd.part05.rar
http://www.uploadable.ch/file/84ksRZqScjRh/polacd7hd.part06.rar
http://www.uploadable.ch/file/83yttb7YCbnW/polacd7hd.part07.rar
http://www.uploadable.ch/file/9aWetwNqh6SH/polacd7hd.part08.rar
http://www.uploadable.ch/file/ZYbAAcMyhrQF/polacd7hd.part09.rar

Tags:
Tags:

 


SMF 2.0.11 | SMF © 2015, Simple Machines
Paginas Afiliadas
Twitter - FaceBook - Daraxblog
Designed by Smf Personal