Bienvenido a Tecnohackers

Tecnohackers » Cultura y Ocio » Mundo Cine » Joyas del Cine
 » 

42 [2013][Full 1080]



Autor Tema: 42 [2013][Full 1080]  (Leído 209 veces)

Desconectado pomposos

  • Gran Experto
  • *****
  • Mensajes: 4456
42 [2013][Full 1080]
« en: Septiembre 26, 2014, 01:22:14 am »


Titulo original 42
Ano 2013
Duracion 128 min.
Pais Estados Unidos
Director Brian Helgeland
Guion Brian Helgeland
Musica Mark Isham
Fotografia Don Burgess
Reparto Chadwick Boseman, Harrison Ford, Nicole Beharie, Christopher Meloni, Alan Tudyk, Lucas Black, John C. McGinley, Ryan Merriman, Jud Tylor, T.R. Knight, Brett Cullen, Hamish Linklater, Toby Huss, Brad Beyer, Rhoda Griffis, Mark Harelik
Productora WB / Legendary Pictures
Genero Drama | Basado en hechos reales. Biografico. Deporte. Beisbol. Anos 40. Racismo
Sinopsis Historia de la vida del afroamericano Jackie Robinson (Chadwick Boseman), legendario jugador de beisbol que rompio las barreras raciales, tras firmar con los Dodgers de Brooklyn bajo la direccion del ejecutivo Branch Rickey (Harrison Ford). La participacion de Robinson en la gran liga de beisbol supuso el fin de una era de segregacion racial en este deporte. Robinson tuvo que soportar toda clase de humillaciones, pero su talento y actitud lo convirtio en un heroe. Con los Dodgers consiguio 6 campeonatos en 10 anos, ademas de una Serie Mundial. Fue nombrado novato del ano 1947, MVP (Most Value Player - Jugador Mas Valioso) en el ano 1949, participo en el All Star en 6 ocasiones y se convirtio en el segundo hombre mas popular del pais tras Bing Crosby. Los logros conseguidos por este jugador legendario hicieron que todos los equipos de la Major League retiraran el numero 42 de sus uniformes, en reconocimiento a su talento, dedicacion y lucha por los derechos humanos. Anos despues, paso a formar parte del Salon de la Fama de Baseball.

Código: You are not allowed to view links. Register or Login
General
42 (2013) [FULL 1080p Dual].mkv
Format : Matroska
Format version : Version 4 / Version 2
File size : 3.38 GiB
Duration : 2h 9mn
Overall bit rate : 3 749 Kbps
Movie name : 42 (2013) [FULL 1080p Dual]
Encoded date : UTC 2014-02-15 22:54:06
Writing application : mkvmerge v6.0.0 ('Coming Up For Air') built on Jan 20 2013 09:52:00
Writing library : libebml v1.3.0 + libmatroska v1.4.0
Video
ID : 1
Format : AVC
Format/Info : Advanced Video Codec
Format profile : Main@L4.0
Format settings, CABAC : Yes
Format settings, ReFrames : 1 frame
Format settings, GOP : M=1, N=24
Codec ID : V_MPEG4/ISO/AVC
Bit rate : 2 907 Kbps
Width : 1 920 pixels
Height : 1 080 pixels
Display aspect ratio : 16:9
Frame rate mode : Variable
Original frame rate : 23.976 fps
Color space : YUV
Chroma subsampling : 4:2:0
Bit depth : 8 bits
Scan type : Progressive
Writing library : x264 core
Default : Yes
Forced : No
Color primaries : BT.709
Transfer characteristics : BT.709
Matrix coefficients : BT.709
Audio #1
ID : 2
Format : AC-3
Format/Info : Audio Coding 3
Mode extension : CM (complete main)
Format settings, Endianness : Big
Codec ID : A_AC3
Duration : 2h 9mn
Bit rate mode : Constant
Bit rate : 448 Kbps
Channel count : 6 channels
Channel positions : Front: L C R, Side: L R, LFE
Sampling rate : 44.1 KHz
Bit depth : 16 bits
Compression mode : Lossy
Stream size : 414 MiB (12%)
Title : Audio Latino
Language : Spanish
Default : Yes
Forced : No
Audio #2
ID : 3
Format : AC-3
Format/Info : Audio Coding 3
Mode extension : CM (complete main)
Format settings, Endianness : Big
Codec ID : A_AC3
Duration : 2h 9mn
Bit rate mode : Constant
Bit rate : 320 Kbps
Channel count : 6 channels
Channel positions : Front: L C R, Side: L R, LFE
Sampling rate : 44.1 KHz
Bit depth : 16 bits
Compression mode : Lossy
Stream size : 296 MiB (9%)
Title : Audio Ingles
Language : English
Default : No
Forced : No
Text #1
ID : 4
Format : VobSub
Muxing mode : zlib
Codec ID : S_VOBSUB
Codec ID/Info : The same subtitle format used on DVDs
Title : Subtitulos Latino
Language : Spanish
Default : No
Forced : No
Text #2
ID : 5
Format : VobSub
Muxing mode : zlib
Codec ID : S_VOBSUB
Codec ID/Info : The same subtitle format used on DVDs
Title : Subtitulos Latino
Language : Spanish
Default : No
Forced : No
Text #3
ID : 6
Format : VobSub
Muxing mode : zlib
Codec ID : S_VOBSUB
Codec ID/Info : The same subtitle format used on DVDs
Title : Subtitulos Ingles
Language : English
Default : No
Forced : No
Text #4
ID : 7
Format : UTF-8
Codec ID : S_TEXT/UTF8
Codec ID/Info : UTF-8 Plain Text
Default : Yes
Forced : No









Código: You are not allowed to view links. Register or Login
http://www.uploadable.ch/file/GTMf6aaMBUbJ/42fhhd.part01.rar
http://www.uploadable.ch/file/7mQxRGxnxDuw/42fhhd.part02.rar
http://www.uploadable.ch/file/fgK2yzkKCv7x/42fhhd.part03.rar
http://www.uploadable.ch/file/DefNWTZyM2tf/42fhhd.part04.rar
http://www.uploadable.ch/file/D4aBRc5M5634/42fhhd.part05.rar
http://www.uploadable.ch/file/BsHBdteAYFFr/42fhhd.part06.rar
http://www.uploadable.ch/file/yJZPPKtQh869/42fhhd.part07.rar
http://www.uploadable.ch/file/fzEzYAZCymAG/42fhhd.part08.rar
http://www.uploadable.ch/file/CGjVaAPGfsVy/42fhhd.part09.rar
http://www.uploadable.ch/file/hfhVwnVZdgYf/42fhhd.part10.rar
http://www.uploadable.ch/file/zXbg5Z2wZFsv/42fhhd.part11.rar
http://www.uploadable.ch/file/erqMPFNQt6Ks/42fhhd.part12.rar
http://www.uploadable.ch/file/3NjsXSfZcXWn/42fhhd.part13.rar
http://www.uploadable.ch/file/9qXs5QF9TT66/42fhhd.part14.rar

Tags:
Tags:

 


SMF 2.0.11 | SMF © 2015, Simple Machines
Paginas Afiliadas
Twitter - FaceBook - Daraxblog
Designed by Smf Personal