Bienvenido a Tecnohackers

Tecnohackers » Cultura y Ocio » Mundo Cine » Joyas del Cine
 » 

Resident Evil - Saga



Autor Tema: Resident Evil - Saga  (Leído 197 veces)

Desconectado pomposos

  • Gran Experto
  • *****
  • Mensajes: 4456
Resident Evil - Saga
« en: Junio 20, 2014, 05:53:26 pm »

Código: You are not allowed to view links. Register or Login
http://www.imdb.com/title/tt0120804/
Titulo original Resident Evil
Ano 2002
Duracion 96 min.
Pais Reino Unido
Director Paul W.S. Anderson
Guion Paul W.S. Anderson
Musica Marco Beltrami, Marilyn Manson
Fotografia David Johnson
Reparto Milla Jovovich, Michelle Rodriguez, Eric Mabius, James Purefoy, Pasquale Aleardi, Stephen Billington, Anna Bolt, Colin Salmon, Marisol Nichols, Heike Makatsch, Joseph May
Productora Coproduccion Reino Unido-Alemania-Francia
Genero Terror. Ciencia ficcion. Accion | Zombis. Videojuego
Sinopsis En un centro clandestino de investigacion genetica -con fines militares- de una poderosa multinacional se produce un brote virico que contamina todo el edificio. Para contener la fuga el ordenador que controla el centro sella toda la instalacion y, en un principio se cree que mueren todos los empleados, pero en realidad se han convertido en feroces zombis..

Código: You are not allowed to view links. Register or Login
Complete name : Resident Evil 1 (2002) 1080p Dual.mkv
Format : Matroska
Format version : Version 4 / Version 2
File size : 2.82 GiB
Duration : 1h 40mn
Overall bit rate : 4 023 Kbps
Movie name : Resident Evil [2002][1080p Dual]
Encoded date : UTC 2013-11-28 18:33:22
Writing application : mkvmerge v6.0.0 ('Coming Up For Air') built on Jan 20 2013 09:52:00
Writing library : libebml v1.3.0 + libmatroska v1.4.0
Video
ID : 1
Format : AVC
Format/Info : Advanced Video Codec
Format profile : Main@L4.0
Format settings, CABAC : Yes
Format settings, ReFrames : 4 frames
Codec ID : V_MPEG4/ISO/AVC
Duration : 1h 40mn
Bit rate : 2 854 Kbps
Nominal bit rate : 3 000 Kbps
Width : 1 920 pixels
Height : 1 080 pixels
Display aspect ratio : 16:9
Frame rate mode : Constant
Frame rate : 23.976 fps
Color space : YUV
Chroma subsampling : 4:2:0
Bit depth : 8 bits
Scan type : Progressive
Bits/(Pixel*Frame) : 0.057
Stream size : 2.00 GiB (71%)
Writing library : x264 core 130 r2273 b3065e6
Default : Yes
Forced : No
Color primaries : BT.709
Transfer characteristics : BT.709
Matrix coefficients : BT.709
Audio #1
ID : 2
Format : AC-3
Format/Info : Audio Coding 3
Mode extension : CM (complete main)
Format settings, Endianness : Big
Codec ID : A_AC3
Duration : 1h 40mn
Bit rate mode : Constant
Bit rate : 640 Kbps
Channel count : 6 channels
Channel positions : Front: L C R, Side: L R, LFE
Sampling rate : 48.0 KHz
Bit depth : 16 bits
Compression mode : Lossy
Stream size : 460 MiB (16%)
Title : Espanol Latino
Default : Yes
Forced : No
Audio #2
ID : 3
Format : AC-3
Format/Info : Audio Coding 3
Mode extension : CM (complete main)
Format settings, Endianness : Big
Codec ID : A_AC3
Duration : 1h 40mn
Bit rate mode : Constant
Bit rate : 448 Kbps
Channel count : 6 channels
Channel positions : Front: L C R, Side: L R, LFE
Sampling rate : 48.0 KHz
Bit depth : 16 bits
Compression mode : Lossy
Stream size : 322 MiB (11%)
Title : Ingles
Default : No
Forced : No
Text #1
ID : 4
Format : UTF-8
Codec ID : S_TEXT/UTF8
Codec ID/Info : UTF-8 Plain Text
Default : Yes
Forced : No
Text #2
ID : 5
Format : UTF-8
Codec ID : S_TEXT/UTF8
Codec ID/Info : UTF-8 Plain Text
Title : Subtitulos Espanol
Default : No
Forced : No









Código: You are not allowed to view links. Register or Login
[url]https://www.oboom.com/K8UMVHM1/resi1evhd.part01.rar[/url]
[url]https://www.oboom.com/Y6WHP9AR/resi1evhd.part02.rar[/url]
[url]https://www.oboom.com/BSTH83LZ/resi1evhd.part03.rar[/url]
[url]https://www.oboom.com/F9M4B2RU/resi1evhd.part04.rar[/url]
[url]https://www.oboom.com/BALC36QC/resi1evhd.part05.rar[/url]
[url]https://www.oboom.com/LT0REWKD/resi1evhd.part06.rar[/url]
[url]https://www.oboom.com/XSCNEVI8/resi1evhd.part07.rar[/url]
[url]https://www.oboom.com/D9JOEDHA/resi1evhd.part08.rar[/url]
[url]https://www.oboom.com/G1ZLQVFX/resi1evhd.part09.rar[/url]
[url]https://www.oboom.com/Y42988UR/resi1evhd.part10.rar[/url]
[url]https://www.oboom.com/3D0UZ6TF/resi1evhd.part11.rar[/url]
[url]https://www.oboom.com/QF9JX9RE/resi1evhd.part12.rar[/url]


Código: You are not allowed to view links. Register or Login
http://www.uploadable.ch/file/h6rpCCWpM4Tp/resi1evhd.part01.rar
http://www.uploadable.ch/file/hCpVaJXfu7xZ/resi1evhd.part02.rar
http://www.uploadable.ch/file/2fCPcuB235u6/resi1evhd.part03.rar
http://www.uploadable.ch/file/tJWP9p68S93j/resi1evhd.part04.rar
http://www.uploadable.ch/file/Yn5qf94FRTje/resi1evhd.part05.rar
http://www.uploadable.ch/file/2mpxYe5pbYUR/resi1evhd.part06.rar
http://www.uploadable.ch/file/xZ5bdKb4ZdYV/resi1evhd.part07.rar
http://www.uploadable.ch/file/6sn8JDZbsNeW/resi1evhd.part08.rar
http://www.uploadable.ch/file/7QWv4CkD32Gp/resi1evhd.part09.rar
http://www.uploadable.ch/file/DE6TFvfXwje3/resi1evhd.part10.rar
http://www.uploadable.ch/file/FDGwpsDuXMYU/resi1evhd.part11.rar
http://www.uploadable.ch/file/dyVJHw7cybzB/resi1evhd.part12.rar

Desconectado pomposos

  • Gran Experto
  • *****
  • Mensajes: 4456
Resident Evil 2 [2004][FullHD 1080]
« Respuesta #1 en: Junio 20, 2014, 05:59:40 pm »

Código: You are not allowed to view links. Register or Login
http://www.imdb.com/title/tt0318627/
Titulo original Resident Evil: Apocalypse (Resident Evil 2)
Ano 2004
Duracion 94 min.
Pais Reino Unido
Director Alexander Witt
Guion Paul W.S. Anderson
Musica Jeff Danna
Fotografia Derek Rogers & Christian Sebaldt
Reparto Milla Jovovich, Thomas Kretschmann, Jared Harris, Sandrine Holt, Mike Epps, Sienna Guillory, Oded Fehr, Zack Ward, Sophie Vavasseur
Productora Coproduccion GB-Alemania-Francia-GB; Sony Pictures Entertainment / Screen Gems / Constantin Film Produktion / Davis-Films / Impact Pictures
Genero Terror. Accion. Ciencia ficcion. Fantastico | Zombis. Videojuego. Secuela
Sinopsis Un virus mortal ha sido liberado sobre la poblacion de Raccoon City. Alice (Milla Jovovich), una de las supervivientes del desastre bioquimico, se encuentra en el corazon de esta devastada ciudad. Sometida a experimentos que han alterado su genetica, ahora posee fuerza, sentidos y destreza sobrehumana. Estas habilidades, y mas, seran las que deba utilizar quien quiera sobrevivir en esta nueva aventura. Junto con otros supervivientes debera escapar de la cada vez mas peligrosa Raccoon City. Para alcanzar su meta necesitaran luchar contra las fuerzas de la Umbrella Corporation, las violentas criaturas de bioingenieria creadas en sus laboratorios, los zombies que plagan la ciudad y, finalmente, enfrentarse a la mas colosal y mortal de estas creaciones: Nemesis.

Código: You are not allowed to view links. Register or Login
Complete name : Resident Evil 2 (2004) 1080p Dual.mkv
Format : Matroska
Format version : Version 4 / Version 2
File size : 2.65 GiB
Duration : 1h 33mn
Overall bit rate : 4 046 Kbps
Movie name : Resident Evil 2 Apocalypse [2004][1080p Dual]
Encoded date : UTC 2013-11-28 18:39:48
Writing application : mkvmerge v6.0.0 ('Coming Up For Air') built on Jan 20 2013 09:52:00
Writing library : libebml v1.3.0 + libmatroska v1.4.0
Video
ID : 1
Format : AVC
Format/Info : Advanced Video Codec
Format profile : Main@L4.0
Format settings, CABAC : Yes
Format settings, ReFrames : 4 frames
Codec ID : V_MPEG4/ISO/AVC
Bit rate : 3 000 Kbps
Width : 1 920 pixels
Height : 1 080 pixels
Display aspect ratio : 16:9
Frame rate mode : Variable
Color space : YUV
Chroma subsampling : 4:2:0
Bit depth : 8 bits
Scan type : Progressive
Writing library : x264 core 130 r2273 b3065e6
Default : Yes
Forced : No
Color primaries : BT.709
Transfer characteristics : BT.709
Matrix coefficients : BT.709
Audio #1
ID : 2
Format : AC-3
Format/Info : Audio Coding 3
Mode extension : CM (complete main)
Format settings, Endianness : Big
Codec ID : A_AC3
Duration : 1h 33mn
Bit rate mode : Constant
Bit rate : 640 Kbps
Channel count : 6 channels
Channel positions : Front: L C R, Side: L R, LFE
Sampling rate : 48.0 KHz
Bit depth : 16 bits
Compression mode : Lossy
Stream size : 429 MiB (16%)
Title : Espanol Latino
Default : Yes
Forced : No
Audio #2
ID : 3
Format : AC-3
Format/Info : Audio Coding 3
Mode extension : CM (complete main)
Format settings, Endianness : Big
Codec ID : A_AC3
Duration : 1h 33mn
Bit rate mode : Constant
Bit rate : 448 Kbps
Channel count : 6 channels
Channel positions : Front: L C R, Side: L R, LFE
Sampling rate : 48.0 KHz
Bit depth : 16 bits
Compression mode : Lossy
Stream size : 301 MiB (11%)
Title : Ingles
Default : No
Forced : No
Text #1
ID : 4
Format : UTF-8
Codec ID : S_TEXT/UTF8
Codec ID/Info : UTF-8 Plain Text
Default : Yes
Forced : No
Text #2
ID : 5
Format : UTF-8
Codec ID : S_TEXT/UTF8
Codec ID/Info : UTF-8 Plain Text
Title : Subtitulos Espanol
Default : No
Forced : No









Código: You are not allowed to view links. Register or Login
[url]https://www.oboom.com/FZ431QUE/resi2evhd.part01.rar[/url]
[url]https://www.oboom.com/K358J2XT/resi2evhd.part02.rar[/url]
[url]https://www.oboom.com/OQ6AXL09/resi2evhd.part03.rar[/url]
[url]https://www.oboom.com/MPE2PE6H/resi2evhd.part04.rar[/url]
[url]https://www.oboom.com/89LB20QK/resi2evhd.part05.rar[/url]
[url]https://www.oboom.com/A8V7XCAV/resi2evhd.part06.rar[/url]
[url]https://www.oboom.com/4PBGUH4P/resi2evhd.part07.rar[/url]
[url]https://www.oboom.com/QZAK0OX7/resi2evhd.part08.rar[/url]
[url]https://www.oboom.com/2KJR8FTD/resi2evhd.part09.rar[/url]
[url]https://www.oboom.com/YYCNS9QA/resi2evhd.part10.rar[/url]
[url]https://www.oboom.com/MNV8TLVP/resi2evhd.part11.rar[/url]


Código: You are not allowed to view links. Register or Login
http://www.uploadable.ch/file/erVbWCf3F7Sx/resi2evhd.part01.rar
http://www.uploadable.ch/file/eeMRvkjVUJmN/resi2evhd.part02.rar
http://www.uploadable.ch/file/wycMEWDcgsWn/resi2evhd.part03.rar
http://www.uploadable.ch/file/dU5QMTfrcgFz/resi2evhd.part04.rar
http://www.uploadable.ch/file/WV9wubKAWuP3/resi2evhd.part05.rar
http://www.uploadable.ch/file/93eK2D6878Vs/resi2evhd.part06.rar
http://www.uploadable.ch/file/ZZ5TW3nDkSJy/resi2evhd.part07.rar
http://www.uploadable.ch/file/2g8wyeEY6x2F/resi2evhd.part08.rar
http://www.uploadable.ch/file/pWzFPdKQrn7c/resi2evhd.part09.rar
http://www.uploadable.ch/file/mYb9SPpwBm8S/resi2evhd.part10.rar
http://www.uploadable.ch/file/kmQgNsBXvG7X/resi2evhd.part11.rar

Desconectado pomposos

  • Gran Experto
  • *****
  • Mensajes: 4456
Resident Evil 3 [2007][FullHD 1080]
« Respuesta #2 en: Junio 20, 2014, 06:05:55 pm »

Código: You are not allowed to view links. Register or Login
http://www.imdb.com/title/tt0432021/
Titulo original Resident Evil: Extinction (Resident Evil 3)
Ano 2007
Duracion 95 min.
Pais Reino Unido
Director Russell Mulcahy
Guion Paul W.S. Anderson
Musica Tyler Bates
Fotografia David Johnson
Reparto Milla Jovovich, Oded Fehr, Ali Larter, Iain Glen, Mike Epps, Spencer Locke, Ashanti, Gary Hudson, Matthew Marsden
Productora Screen Gems
Genero Ciencia ficcion. Thriller. Fantastico. Accion | Zombis. Videojuego. Secuela
Sinopsis Tercera entrega de la saga 'Resident Evil'. En esta ocasion nuestra heroina, junto con los supervivientes de la catastrofe acontecida en la ciudad de Raccoon, deben atravesar el desierto de Nevada con la esperanza de llegar a Alaska, antes de que los de la 'Corporacion Umbrella' les alcancen

Código: You are not allowed to view links. Register or Login
Complete name : Resident Evil 3 (2007) 1080p Dual.mkv
Format : Matroska
Format version : Version 4 / Version 2
File size : 2.62 GiB
Duration : 1h 34mn
Overall bit rate : 3 986 Kbps
Movie name : Resident Evil 3 Extinction [2007][1080p Dual]
Encoded date : UTC 2013-11-28 18:46:32
Writing application : mkvmerge v6.0.0 ('Coming Up For Air') built on Jan 20 2013 09:52:00
Writing library : libebml v1.3.0 + libmatroska v1.4.0
Video
ID : 1
Format : AVC
Format/Info : Advanced Video Codec
Format profile : Main@L4.0
Format settings, CABAC : Yes
Format settings, ReFrames : 4 frames
Codec ID : V_MPEG4/ISO/AVC
Duration : 1h 34mn
Bit rate : 2 819 Kbps
Nominal bit rate : 3 000 Kbps
Width : 1 920 pixels
Height : 1 080 pixels
Display aspect ratio : 16:9
Frame rate mode : Constant
Frame rate : 23.976 fps
Color space : YUV
Chroma subsampling : 4:2:0
Bit depth : 8 bits
Scan type : Progressive
Bits/(Pixel*Frame) : 0.057
Stream size : 1.85 GiB (71%)
Writing library : x264 core 130 r2273 b3065e6
Default : Yes
Forced : No
Color primaries : BT.709
Transfer characteristics : BT.709
Matrix coefficients : BT.709
Audio #1
ID : 2
Format : AC-3
Format/Info : Audio Coding 3
Mode extension : CM (complete main)
Format settings, Endianness : Big
Codec ID : A_AC3
Duration : 1h 34mn
Bit rate mode : Constant
Bit rate : 640 Kbps
Channel count : 6 channels
Channel positions : Front: L C R, Side: L R, LFE
Sampling rate : 48.0 KHz
Bit depth : 16 bits
Compression mode : Lossy
Stream size : 431 MiB (16%)
Title : Espanol Latino
Default : Yes
Forced : No
Audio #2
ID : 3
Format : AC-3
Format/Info : Audio Coding 3
Mode extension : CM (complete main)
Format settings, Endianness : Big
Codec ID : A_AC3
Duration : 1h 34mn
Bit rate mode : Constant
Bit rate : 448 Kbps
Channel count : 6 channels
Channel positions : Front: L C R, Side: L R, LFE
Sampling rate : 48.0 KHz
Bit depth : 16 bits
Compression mode : Lossy
Stream size : 302 MiB (11%)
Title : Ingles
Default : No
Forced : No
Text #1
ID : 4
Format : UTF-8
Codec ID : S_TEXT/UTF8
Codec ID/Info : UTF-8 Plain Text
Default : Yes
Forced : No
Text #2
ID : 5
Format : UTF-8
Codec ID : S_TEXT/UTF8
Codec ID/Info : UTF-8 Plain Text
Title : Subtitulos Espanol
Default : No
Forced : No









Código: You are not allowed to view links. Register or Login
[url]https://www.oboom.com/3Z2IAFF4/resi3evhd.part01.rar[/url]
[url]https://www.oboom.com/TQ3PQIPT/resi3evhd.part02.rar[/url]
[url]https://www.oboom.com/SNZDP5GL/resi3evhd.part03.rar[/url]
[url]https://www.oboom.com/1O766O74/resi3evhd.part04.rar[/url]
[url]https://www.oboom.com/ZE02MAO4/resi3evhd.part05.rar[/url]
[url]https://www.oboom.com/ST515K8D/resi3evhd.part06.rar[/url]
[url]https://www.oboom.com/946P1KEG/resi3evhd.part07.rar[/url]
[url]https://www.oboom.com/F9RFQESI/resi3evhd.part08.rar[/url]
[url]https://www.oboom.com/G850BU29/resi3evhd.part09.rar[/url]
[url]https://www.oboom.com/RRTG1JRQ/resi3evhd.part10.rar[/url]
[url]https://www.oboom.com/HQOGZ6JV/resi3evhd.part11.rar[/url]


Código: You are not allowed to view links. Register or Login
http://www.uploadable.ch/file/8V8kJv7tabxN/resi3evhd.part01.rar
http://www.uploadable.ch/file/a3uuM5ARJnAz/resi3evhd.part02.rar
http://www.uploadable.ch/file/hsu3RbCndFrr/resi3evhd.part03.rar
http://www.uploadable.ch/file/4g3rhq9Sj3YE/resi3evhd.part04.rar
http://www.uploadable.ch/file/rcCwYMaQVVup/resi3evhd.part05.rar
http://www.uploadable.ch/file/HmAhheFMP2rP/resi3evhd.part06.rar
http://www.uploadable.ch/file/sYCyxJgZyr6r/resi3evhd.part07.rar
http://www.uploadable.ch/file/r36c4bGeHHvC/resi3evhd.part08.rar
http://www.uploadable.ch/file/9J5Bd5TEEUyK/resi3evhd.part09.rar
http://www.uploadable.ch/file/hYKHR7VzJndt/resi3evhd.part10.rar
http://www.uploadable.ch/file/aZ6jwVYXYdz2/resi3evhd.part11.rar

Desconectado pomposos

  • Gran Experto
  • *****
  • Mensajes: 4456
Resident Evil 4 [2010][FullHD 1080]
« Respuesta #3 en: Junio 20, 2014, 06:12:09 pm »

Código: You are not allowed to view links. Register or Login
http://www.imdb.com/title/tt1220634/
Titulo original Resident Evil: Afterlife (Resident Evil 4)
Ano 2010
Duracion 97 min.
Pais Canada
Director Paul W.S. Anderson
Guion Paul W.S. Anderson
Musica tomandandy
Fotografia Glen MacPherson
Reparto Milla Jovovich, Ali Larter, Wentworth Miller, Spencer Locke, Boris Kodjoe, Kim Coates, Shawn Roberts, Sienna Guillory, Kacey Barnfield, Norman Yeung, Sergio Peris-Mencheta
Productora Coproduccion Canada-EEUU-Reino Unido; Sony Pictures
Genero Terror. Accion. Ciencia ficcion | Futuro postapocaliptico. Zombis. Secuela. Videojuego. 3-D
Sinopsis En un mundo arrasado por un virus que transforma a sus victimas en no muertos, Alice (Milla Jovovich) continua su viaje en busca de supervivientes para conducirlos hacia un lugar seguro. Su batalla sin fin contra la Corporacion Umbrella alcanza nuevas alturas, pero Alice recibe ayuda inesperada de un viejo amigo; un nuevo lider que promete un refugio seguro contra los zombis que los guia hacia Los Angeles; pero al llegar, la ciudad se encuentra poblada de hordas de muertos vivientes, y Alice y sus camaradas estaran a un paso de una trampa mortal.

Código: You are not allowed to view links. Register or Login
Complete name : Resident Evil 4 (2010) 1080p Dual.mkv
Format : Matroska
Format version : Version 4 / Version 2
File size : 2.75 GiB
Duration : 1h 36mn
Overall bit rate : 4 062 Kbps
Movie name : Resident Evil 4 Afterlife [2010][1080p Dual]
Encoded date : UTC 2013-11-28 18:52:10
Writing application : mkvmerge v6.0.0 ('Coming Up For Air') built on Jan 20 2013 09:52:00
Writing library : libebml v1.3.0 + libmatroska v1.4.0
Video
ID : 1
Format : AVC
Format/Info : Advanced Video Codec
Format profile : Main@L4.0
Format settings, CABAC : Yes
Format settings, ReFrames : 4 frames
Codec ID : V_MPEG4/ISO/AVC
Duration : 1h 36mn
Bit rate : 3 000 Kbps
Width : 1 920 pixels
Height : 1 080 pixels
Display aspect ratio : 16:9
Frame rate mode : Constant
Frame rate : 23.976 fps
Color space : YUV
Chroma subsampling : 4:2:0
Bit depth : 8 bits
Scan type : Progressive
Bits/(Pixel*Frame) : 0.060
Stream size : 1.96 GiB (71%)
Writing library : x264 core 130 r2273 b3065e6
Default : Yes
Forced : No
Color primaries : BT.709
Transfer characteristics : BT.709
Matrix coefficients : BT.709
Audio #1
ID : 2
Format : AC-3
Format/Info : Audio Coding 3
Mode extension : CM (complete main)
Format settings, Endianness : Big
Codec ID : A_AC3
Duration : 1h 36mn
Bit rate mode : Constant
Bit rate : 640 Kbps
Channel count : 6 channels
Channel positions : Front: L C R, Side: L R, LFE
Sampling rate : 48.0 KHz
Bit depth : 16 bits
Compression mode : Lossy
Stream size : 443 MiB (16%)
Title : Espanol Latino
Default : Yes
Forced : No
Audio #2
ID : 3
Format : AC-3
Format/Info : Audio Coding 3
Mode extension : CM (complete main)
Format settings, Endianness : Big
Codec ID : A_AC3
Duration : 1h 36mn
Bit rate mode : Constant
Bit rate : 448 Kbps
Channel count : 6 channels
Channel positions : Front: L C R, Side: L R, LFE
Sampling rate : 48.0 KHz
Bit depth : 16 bits
Compression mode : Lossy
Stream size : 310 MiB (11%)
Title : Ingles
Default : No
Forced : No
Text #1
ID : 4
Format : UTF-8
Codec ID : S_TEXT/UTF8
Codec ID/Info : UTF-8 Plain Text
Default : Yes
Forced : No
Text #2
ID : 5
Format : UTF-8
Codec ID : S_TEXT/UTF8
Codec ID/Info : UTF-8 Plain Text
Title : Subtitulos Espanol
Default : No
Forced : No









Código: You are not allowed to view links. Register or Login
[url]https://www.oboom.com/7ULHEMTJ/resi4evhd.part01.rar[/url]
[url]https://www.oboom.com/RWL883S1/resi4evhd.part02.rar[/url]
[url]https://www.oboom.com/RHBRUZXR/resi4evhd.part03.rar[/url]
[url]https://www.oboom.com/TXIDTST6/resi4evhd.part04.rar[/url]
[url]https://www.oboom.com/1D1M3KCZ/resi4evhd.part05.rar[/url]
[url]https://www.oboom.com/TLDXGEID/resi4evhd.part06.rar[/url]
[url]https://www.oboom.com/LBS32BQI/resi4evhd.part07.rar[/url]
[url]https://www.oboom.com/K8P38SEN/resi4evhd.part08.rar[/url]
[url]https://www.oboom.com/RLAKZQZW/resi4evhd.part09.rar[/url]
[url]https://www.oboom.com/SZ7A9GPZ/resi4evhd.part10.rar[/url]
[url]https://www.oboom.com/RLQQ6TK2/resi4evhd.part11.rar[/url]
[url]https://www.oboom.com/QEHB1FBU/resi4evhd.part12.rar[/url]


Código: You are not allowed to view links. Register or Login
http://www.uploadable.ch/file/Ue9TYQwXgras/resi4evhd.part01.rar
http://www.uploadable.ch/file/4WvH28WAAP5k/resi4evhd.part02.rar
http://www.uploadable.ch/file/BwKpYfQWvvxE/resi4evhd.part03.rar
http://www.uploadable.ch/file/UPbe6wKpV7n4/resi4evhd.part04.rar
http://www.uploadable.ch/file/jSGwn4cy2Jwr/resi4evhd.part05.rar
http://www.uploadable.ch/file/AxrZJwn5N68W/resi4evhd.part06.rar
http://www.uploadable.ch/file/mWUUkG8XSVyh/resi4evhd.part07.rar
http://www.uploadable.ch/file/SATNdcYqcc3j/resi4evhd.part08.rar
http://www.uploadable.ch/file/4UgTE3nQgaq2/resi4evhd.part09.rar
http://www.uploadable.ch/file/G7TNp5TpDQvT/resi4evhd.part10.rar
http://www.uploadable.ch/file/UEPp8wt5xGQ2/resi4evhd.part11.rar
http://www.uploadable.ch/file/CSbe2T8dbT48/resi4evhd.part12.rar

Desconectado pomposos

  • Gran Experto
  • *****
  • Mensajes: 4456
Resident Evil 5 [2012][FullHD 1080]
« Respuesta #4 en: Junio 20, 2014, 06:18:25 pm »

Código: You are not allowed to view links. Register or Login
http://www.imdb.com/title/tt1855325/
Titulo original Resident Evil: Retribution (Resident Evil 5)
Ano 2012
Duracion 95 min.
Pais Canada
Director Paul W.S. Anderson
Guion Paul W.S. Anderson
Musica Tomandandy
Fotografia Glen MacPherson
Reparto Milla Jovovich, Sienna Guillory, Colin Salmon, Michelle Rodriguez, Shawn Roberts, Boris Kodjoe, Johann Urb, Oded Fehr, Kevin Durand, Li Bingbing, Megan Charpentier
Productora Coproduccion Canada-Alemania
Genero Ciencia ficcion. Accion. Terror | Futuro postapocaliptico. Zombis. Secuela. Videojuego. 3-D
Sinopsis Alice (Milla Jovovich) continua su lucha contra la Umbrella Corporation y sus malvados planes en esta quinta entrega de la franquicia basada en la saga de videojuegos "Resident Evil", que se desarrolla en Tokio. Es secuela de Resident Evil 4: Ultratumba.

Código: You are not allowed to view links. Register or Login
Complete name : Resident Evil 5 (2012) 1080p Dual.mkv
Format : Matroska
Format version : Version 4 / Version 2
File size : 2.64 GiB
Duration : 1h 35mn
Overall bit rate : 3 960 Kbps
Movie name : Resident Evil 5 Retribution [2012][1080p Dual]
Encoded date : UTC 2013-11-28 18:58:38
Writing application : mkvmerge v6.0.0 ('Coming Up For Air') built on Jan 20 2013 09:52:00
Writing library : libebml v1.3.0 + libmatroska v1.4.0
Video
ID : 1
Format : AVC
Format/Info : Advanced Video Codec
Format profile : Main@L4.0
Format settings, CABAC : Yes
Format settings, ReFrames : 4 frames
Codec ID : V_MPEG4/ISO/AVC
Duration : 1h 35mn
Bit rate : 2 793 Kbps
Nominal bit rate : 3 000 Kbps
Width : 1 920 pixels
Height : 1 080 pixels
Display aspect ratio : 16:9
Frame rate mode : Constant
Frame rate : 23.976 fps
Color space : YUV
Chroma subsampling : 4:2:0
Bit depth : 8 bits
Scan type : Progressive
Bits/(Pixel*Frame) : 0.056
Stream size : 1.87 GiB (71%)
Writing library : x264 core 130 r2273 b3065e6
Default : Yes
Forced : No
Color primaries : BT.709
Transfer characteristics : BT.709
Matrix coefficients : BT.709
Audio #1
ID : 2
Format : AC-3
Format/Info : Audio Coding 3
Mode extension : CM (complete main)
Format settings, Endianness : Big
Codec ID : A_AC3
Duration : 1h 35mn
Bit rate mode : Constant
Bit rate : 640 Kbps
Channel count : 6 channels
Channel positions : Front: L C R, Side: L R, LFE
Sampling rate : 48.0 KHz
Bit depth : 16 bits
Compression mode : Lossy
Stream size : 438 MiB (16%)
Title : Espanol Latino
Default : Yes
Forced : No
Audio #2
ID : 3
Format : AC-3
Format/Info : Audio Coding 3
Mode extension : CM (complete main)
Format settings, Endianness : Big
Codec ID : A_AC3
Duration : 1h 35mn
Bit rate mode : Constant
Bit rate : 448 Kbps
Channel count : 6 channels
Channel positions : Front: L C R, Side: L R, LFE
Sampling rate : 48.0 KHz
Bit depth : 16 bits
Compression mode : Lossy
Stream size : 306 MiB (11%)
Title : Ingles
Default : No
Forced : No
Text #1
ID : 4
Format : UTF-8
Codec ID : S_TEXT/UTF8
Codec ID/Info : UTF-8 Plain Text
Default : Yes
Forced : No
Text #2
ID : 5
Format : UTF-8
Codec ID : S_TEXT/UTF8
Codec ID/Info : UTF-8 Plain Text
Title : Subtitulos Espanol
Default : No
Forced : No









Código: You are not allowed to view links. Register or Login
[url]https://www.oboom.com/LNL95W2W/resi5evhd.part01.rar[/url]
[url]https://www.oboom.com/NMNGH6JT/resi5evhd.part02.rar[/url]
[url]https://www.oboom.com/F17C7CS4/resi5evhd.part03.rar[/url]
[url]https://www.oboom.com/EUDZELMK/resi5evhd.part04.rar[/url]
[url]https://www.oboom.com/LWRL7O7J/resi5evhd.part05.rar[/url]
[url]https://www.oboom.com/XITOZJIZ/resi5evhd.part06.rar[/url]
[url]https://www.oboom.com/9FRWV2SM/resi5evhd.part07.rar[/url]
[url]https://www.oboom.com/RLKTKG14/resi5evhd.part08.rar[/url]
[url]https://www.oboom.com/AC0JMVXB/resi5evhd.part09.rar[/url]
[url]https://www.oboom.com/E7HHGHCD/resi5evhd.part10.rar[/url]
[url]https://www.oboom.com/ZMLSILF6/resi5evhd.part11.rar[/url]


Código: You are not allowed to view links. Register or Login
http://www.uploadable.ch/file/EY7BC9EV3NS7/resi5evhd.part01.rar
http://www.uploadable.ch/file/NqFHDTGefHBY/resi5evhd.part02.rar
http://www.uploadable.ch/file/wyuKQxyUUjNH/resi5evhd.part03.rar
http://www.uploadable.ch/file/cqRG4u2fWX5T/resi5evhd.part04.rar
http://www.uploadable.ch/file/EJXKp67yghm4/resi5evhd.part05.rar
http://www.uploadable.ch/file/DpaRCN2jKPJ9/resi5evhd.part06.rar
http://www.uploadable.ch/file/7NHEd2Fyv3Ac/resi5evhd.part07.rar
http://www.uploadable.ch/file/xDvz5YZpaBaJ/resi5evhd.part08.rar
http://www.uploadable.ch/file/JKFWdnYFW6AV/resi5evhd.part09.rar
http://www.uploadable.ch/file/TYfkk5UUuj9q/resi5evhd.part10.rar
http://www.uploadable.ch/file/xZ5zeVtCYv63/resi5evhd.part11.rar

Tags:
Tags:

 


SMF 2.0.11 | SMF © 2015, Simple Machines
Paginas Afiliadas
Twitter - FaceBook - Daraxblog
Designed by Smf Personal