Bienvenido a Tecnohackers

Tecnohackers » Cultura y Ocio » Mundo Cine » Joyas del Cine
 » 

Force of Execution [2013][FullHD 1080]



Autor Tema: Force of Execution [2013][FullHD 1080]  (Leído 120 veces)

Desconectado pomposos

  • Gran Experto
  • *****
  • Mensajes: 4456
Force of Execution [2013][FullHD 1080]
« en: Junio 20, 2014, 04:23:47 pm »

Código: You are not allowed to view links. Register or Login
http://www.imdb.com/title/tt2611626/
Titulo original Force of Execution
Ano 2013
Duracion 98 min.
Pais Estados Unidos
Director Keoni Waxman
Guion Richard Beattie, Michael Black
Musica Michael Richard Plowman
Fotografia Nathan Wilson
Reparto Steven Seagal, Ving Rhames, Danny Trejo, Bren Foster, Jenny Gabrielle, David House, Dylan Kenin, Jermaine Washington, Sarah Minnich
Productora Voltage Pictures
Genero Accion. Thriller | Mafia
Sinopsis Thomas Douglas era el gangster mas respetado en su ciudad, hasta que un despiadado narcotraficante conocido como "The Iceman" entro en escena y lo aparto del negocio. Siendo duro, Douglas siguio adelante... hasta que amenazaron lo que mas quiere: su familia. Entonces Douglas decide ponerse manos a la obra para proteger a los suyos y su legado.

Código: You are not allowed to view links. Register or Login
Format : Matroska
Format version : Version 4 / Version 2
File size : 2.49 GiB
Duration : 1h 38mn
Overall bit rate : 3 598 Kbps
Movie name : Force of Execution (2013) [FULL 1080p Sub]
Encoded date : UTC 2013-11-29 20:33:02
Writing application : mkvmerge v6.0.0 ('Coming Up For Air') built on Jan 20 2013 09:52:00
Writing library : libebml v1.3.0 + libmatroska v1.4.0
Video
ID : 1
Format : AVC
Format/Info : Advanced Video Codec
Format profile : Main@L4.0
Format settings, CABAC : Yes
Format settings, ReFrames : 4 frames
Codec ID : V_MPEG4/ISO/AVC
Duration : 1h 38mn
Bit rate : 3 000 Kbps
Width : 1 920 pixels
Height : 1 080 pixels
Display aspect ratio : 16:9
Frame rate mode : Constant
Frame rate : 23.976 fps
Color space : YUV
Chroma subsampling : 4:2:0
Bit depth : 8 bits
Scan type : Progressive
Bits/(Pixel*Frame) : 0.060
Stream size : 1.99 GiB (80%)
Writing library : x264 core 130 r2273 b3065e6
Default : Yes
Forced : No
Color primaries : BT.709
Transfer characteristics : BT.709
Matrix coefficients : BT.709
Audio
ID : 2
Format : AC-3
Format/Info : Audio Coding 3
Mode extension : CM (complete main)
Format settings, Endianness : Big
Codec ID : A_AC3
Duration : 1h 38mn
Bit rate mode : Constant
Bit rate : 640 Kbps
Channel count : 6 channels
Channel positions : Front: L C R, Side: L R, LFE
Sampling rate : 48.0 KHz
Bit depth : 16 bits
Compression mode : Lossy
Stream size : 453 MiB (18%)
Title : Audio Ingles
Default : Yes
Forced : No
Text
ID : 3
Format : UTF-8
Codec ID : S_TEXT/UTF8
Codec ID/Info : UTF-8 Plain Text
Title : Subtitulos Latino
Default : Yes
Forced : No









Código: You are not allowed to view links. Register or Login
[url]https://www.oboom.com/4BWI7OIJ/foroecehd.part01.rar[/url]
[url]https://www.oboom.com/57A90H9B/foroecehd.part02.rar[/url]
[url]https://www.oboom.com/463LSV2F/foroecehd.part03.rar[/url]
[url]https://www.oboom.com/GWJ2IXTR/foroecehd.part04.rar[/url]
[url]https://www.oboom.com/SRNL80R5/foroecehd.part05.rar[/url]
[url]https://www.oboom.com/41S0EQXU/foroecehd.part06.rar[/url]
[url]https://www.oboom.com/A3AFAF8W/foroecehd.part07.rar[/url]
[url]https://www.oboom.com/KXE783JM/foroecehd.part08.rar[/url]
[url]https://www.oboom.com/9K08QF1F/foroecehd.part09.rar[/url]
[url]https://www.oboom.com/YSDOJGOV/foroecehd.part10.rar[/url]
[url]https://www.oboom.com/G6RFOV3K/foroecehd.part11.rar[/url]


Código: You are not allowed to view links. Register or Login
http://www.uploadable.ch/file/r5ZFK9yEfANn/foroecehd.part01.rar
http://www.uploadable.ch/file/8HcYkxnHPUPu/foroecehd.part02.rar
http://www.uploadable.ch/file/Gx5Q28FAPeYT/foroecehd.part03.rar
http://www.uploadable.ch/file/ykFDdzJED5aq/foroecehd.part04.rar
http://www.uploadable.ch/file/RyaQR96EYyFW/foroecehd.part05.rar
http://www.uploadable.ch/file/UgyKXg5ZztT3/foroecehd.part06.rar
http://www.uploadable.ch/file/y6eQVNXw4hWD/foroecehd.part07.rar
http://www.uploadable.ch/file/ZXvGcC4bQ8sy/foroecehd.part08.rar
http://www.uploadable.ch/file/3xeE6eqEmMGQ/foroecehd.part09.rar
http://www.uploadable.ch/file/ytRz6XnSX682/foroecehd.part10.rar
http://www.uploadable.ch/file/EFD3kcpsVqkQ/foroecehd.part11.rar

Tags:
Tags:

 


SMF 2.0.11 | SMF © 2015, Simple Machines
Paginas Afiliadas
Twitter - FaceBook - Daraxblog
Designed by Smf Personal