Bienvenido a Tecnohackers

Tecnohackers » Cultura y Ocio » Mundo Cine » Joyas del Cine
 » 

The Fast and the Furious - Saga



Autor Tema: The Fast and the Furious - Saga  (Leído 172 veces)

Desconectado pomposos

  • Gran Experto
  • *****
  • Mensajes: 4456
The Fast and the Furious - Saga
« en: Junio 05, 2014, 05:21:26 pm »

Código: You are not allowed to view links. Register or Login
http://www.imdb.com/title/tt0232500/
Titulo original The Fast and the Furious
Ano 2001
Duracion 109 min.
Pais Estados Unidos
Director Rob Cohen
Guion Gary Scott Thompson, David Ayer, Erik Bergquist, Ken Li
Musica BT
Fotografia Ericson Core
Reparto Paul Walker, Vin Diesel, Michelle Rodriguez, Jordana Brewster, Rick Yune, Chad Lindberg, Johnny Strong, Ted Levine, Matt Schulze, Delphine Pacific, Ja Rule, Doria Anselmo, Thom Barry
Productora Universal Pictures / Original Film / Mediastream Film
Genero Accion | Coches / Automovilismo
Sinopsis Una misteriosa banda de delincuentes se dedica a robar camiones en marcha desde vehiculos deportivos. La policia decide infiltrar un hombre en el mundo de las carreras ilegales para descubrir posibles sospechosos. El joven y apuesto Brian entra en el mundo del tunning donde conoce a Dominic, rey indiscutible de este mundo y sospechoso numero uno, pero todo se complicara cuando se enamore de su hermana.

Código: You are not allowed to view links. Register or Login
General
Complete name : Rapido Y Furioso 1 (2001) 1080p Dual.mkv
Format : Matroska
Format version : Version 4 / Version 2
File size : 3.05 GiB
Duration : 1h 46mn
Overall bit rate : 4 089 Kbps
Movie name : The Fast and Furious [2001][1080p Dual]
Encoded date : UTC 2013-11-16 18:06:24
Writing application : mkvmerge v6.0.0 ('Coming Up For Air') built on Jan 20 2013 09:52:00
Writing library : libebml v1.3.0 + libmatroska v1.4.0
Video ID : 1 Format : AVC
Format/Info : Advanced Video Codec Format profile : High@L4.0
Format settings, CABAC : Yes
Format settings, ReFrames : 4 frames
Codec ID : V_MPEG4/ISO/AVC
Duration : 1h 46mn
Bit rate : 3 066 Kbps Width : 1 920 pixels Height : 1 080 pixels
Display aspect ratio : 16:9
Frame rate mode : Constant Frame rate : 23.976 fps
Color space : YUV Chroma subsampling : 4:2:0 Bit depth : 8 bits
Scan type : Progressive Bits/(Pixel*Frame) : 0.062 Stream size : 2.23 GiB (73%)
Writing library : x264 core 133 r2334 a3ac64b
Default : Yes
Forced : No
Audio #1
ID : 2
Format : AC-3
Format/Info : Audio Coding 3
Mode extension : CM (complete main)
Format settings, Endianness : Big
Codec ID : A_AC3
Duration : 1h 46mn
Bit rate mode : Constant Bit rate : 512 Kbps
Channel count : 6 channels
Channel positions : Front: L C R, Side: L R, LFE
Sampling rate : 48.0 KHz Bit depth : 16 bits
Compression mode : Lossy Stream size : 392 MiB (13%)
Title : Espanol Latino
Default : Yes
Forced : No
Audio #2
ID : 3
Format : AC-3
Format/Info : Audio Coding 3
Mode extension : CM (complete main)
Format settings, Endianness : Big
Codec ID : A_AC3 Duration : 1h 46mn
Bit rate mode : Constant Bit rate : 512 Kbps
Channel count : 6 channels
Channel positions : Front: L C R, Side: L R, LFE
Sampling rate : 48.0 KHz
Bit depth : 16 bits
Compression mode : Lossy
Stream size : 392 MiB (13%)
Title : Ingles
Default : No
Forced : No
Text #1
ID : 4
Format : UTF-8
Codec ID : S_TEXT/UTF8
Codec ID/Info : UTF-8
Default : Yes
Forced : No
Text #2
ID : 5
Format : UTF-8
Codec ID : S_TEXT/UTF8
Codec ID/Info : UTF-8
Plain Text Title : Subtitulos Espanol
Default : No
Forced : No









Código: You are not allowed to view links. Register or Login
http://www.uploadable.ch/file/QzkpGfBPNX4F/tfasfurg1hd.part01.rar
http://www.uploadable.ch/file/nzYmqgUGpPAJ/tfasfurg1hd.part02.rar
http://www.uploadable.ch/file/cKbmWaDtdWRA/tfasfurg1hd.part03.rar
http://www.uploadable.ch/file/dnY9VJPaZkys/tfasfurg1hd.part04.rar
http://www.uploadable.ch/file/McbGgSq5mbu2/tfasfurg1hd.part05.rar
http://www.uploadable.ch/file/kDUXtCEkv6mA/tfasfurg1hd.part06.rar
http://www.uploadable.ch/file/ZK3pEJAqTv4H/tfasfurg1hd.part07.rar
http://www.uploadable.ch/file/BMVBMfGmpHfJ/tfasfurg1hd.part08.rar
http://www.uploadable.ch/file/PmzcT4pEsbz6/tfasfurg1hd.part09.rar
http://www.uploadable.ch/file/55eya7uSNnfR/tfasfurg1hd.part10.rar
http://www.uploadable.ch/file/3Gr8P8h9d3Yr/tfasfurg1hd.part11.rar
http://www.uploadable.ch/file/BvVzMXSCbsgb/tfasfurg1hd.part12.rar
http://www.uploadable.ch/file/38rGG2sQhqQx/tfasfurg1hd.part13.rar


Código: You are not allowed to view links. Register or Login
http://vozupload.com/2po6fxhhes2w/tfasfurg1hd.part01.rar.html
http://vozupload.com/gogfpvr1cpt8/tfasfurg1hd.part02.rar.html
http://vozupload.com/349zitu8t487/tfasfurg1hd.part03.rar.html
http://vozupload.com/zcfesmmllrb9/tfasfurg1hd.part04.rar.html
http://vozupload.com/anw30f91bfwe/tfasfurg1hd.part05.rar.html
http://vozupload.com/w0zd7q6krll8/tfasfurg1hd.part06.rar.html
http://vozupload.com/phs9mbndxxv7/tfasfurg1hd.part07.rar.html
http://vozupload.com/zrw4l7hy2gsr/tfasfurg1hd.part08.rar.html
http://vozupload.com/aad7lgqpwd8a/tfasfurg1hd.part09.rar.html
http://vozupload.com/43apig250vme/tfasfurg1hd.part10.rar.html
http://vozupload.com/0x971l64ppbo/tfasfurg1hd.part11.rar.html
http://vozupload.com/bv7eyds44xy7/tfasfurg1hd.part12.rar.html
http://vozupload.com/ufp6e0wl2586/tfasfurg1hd.part13.rar.html

Desconectado pomposos

  • Gran Experto
  • *****
  • Mensajes: 4456
The Fast and the Furious 2 [2003][FullHD 1080]
« Respuesta #1 en: Junio 05, 2014, 05:30:42 pm »

Código: You are not allowed to view links. Register or Login
http://www.imdb.com/title/tt0322259
Titulo original 2 Fast 2 Furious (AKA The Fast and the Furious 2)
Ano 2003
Duracion 100 min.
Pais Estados Unidos
Director John Singleton
Guion Derek Haas, Michael Brandt (Personajes: Gary Scott Thompson)
Musica Varios
Fotografia Matthew F. Leonetti
Reparto Paul Walker, Tyrese Gibson, Eva Mendes, Cole Hauser, Ludacris, Devon Aoki, Amaury Nolasco, Thom Barry, James Remar, Mark Boone Junior, Mo Gallini, Roberto Sanz Sanchez, John Cenatiempo, Eric Etebari
Productora Universal Pictures
Genero Accion. Thriller | Coches / Automovilismo. Secuela
Sinopsis Secuela de "A todo gas" (The Fast and the Furious). Brian OConnor (Paul Walker), un policia caido en desgracia, fue un adicto a la velocidad y ahora esta pagando un precio por ello. Tal y como lo ven sus antiguos jefes y los altos mandos del FBI, este agente de incognito les echo a perder una de las investigaciones mas importantes que habian emprendido. Al ver sus distintas lealtades puestas a prueba tras haberse infiltrado en el mundo de las carreras clandestinas nocturnas de Los Angeles, O'Connor destapo su identidad y dejo huir -montado en su moto de carreras preparada- al jefe de una banda criminal. La decision de O'Connor le permitio conservar su honor, pero le hizo perder su insignia y toda posibilidad de rehabilitarse. Ahora ha pasado el tiempo, O'Connor esta en otra ciudad y tiene una ultima oportunidad. A los federales de Miami les esta costando mucho detener a Carter Vellone (Cole Hauser), un empresario que utiliza su negocio de importacion y exportacion como tapadera para un cartel internacional de blanqueo de dinero. Aduanas lleva un ano sometiendo a Verone a una estricta vigilancia, y lo unico que han podido establecer es su relacion con las carreras callejeras ilegales. El tiempo se acaba, y los agentes deciden llamar a O'Connor para que haga lo que sabe hacer mejor que nadie: volver a infiltrarse entre los conductores. Pero este hombre individualista poco amigo de los reglamentos pone algunas condiciones para aceptar la mision que puede permitirle recuperar su insignia. El primero: trabajar con su amigo de infancia y antiguo delincuente Roman Pearce (Tyrese), otro enfermo de la velocidad.

Código: You are not allowed to view links. Register or Login
General
Complete name : Rapido Y Furioso 2 (2003) 1080p Dual.mkv
Format : Matroska
Format version : Version 4 / Version 2
File size : 3.06 GiB
Duration : 1h 47mn
Overall bit rate : 4 064 Kbps
Movie name : 2 Fast 2 Furious [2003][1080p Dual]
Encoded date : UTC 2013-11-18 18:25:19
Writing application : mkvmerge v6.4.1 ('Omega Point') built on Sep 16 2013 22:05:10
Writing library : libebml v1.3.0 + libmatroska v1.4.1
Video ID : 1
Format : AVC
Format/Info : Advanced Video Codec
Format profile : High@L4.0
Format settings, CABAC : Yes
Format settings, ReFrames : 4 frames
Codec ID : V_MPEG4/ISO/AVC
Duration : 1h 47mn
Bit rate : 3 044 Kbps
Width : 1 920 pixels
Height : 1 080 pixels
Display aspect ratio : 16:9
Frame rate mode : Constant
Frame rate : 23.976 fps
Color space : YUV Chroma subsampling : 4:2:0 Bit depth : 8 bits
Scan type : Progressive Bits/(Pixel*Frame) : 0.061
Stream size : 2.23 GiB (73%)
Writing library : x264 core 133 r2334 a3ac64b
Default : Yes
Forced : No
Audio #1
ID : 2
Format : AC-3
Format/Info : Audio Coding 3
Mode extension : CM (complete main)
Format settings, Endianness : Big Codec ID : A_AC3
Duration : 1h 47mn
Bit rate mode : Constant
Bit rate : 512 Kbps
Channel count : 6 channels
Channel positions : Front: L C R, Side: L R, LFE
Sampling rate : 48.0 KHz
Bit depth : 16 bits
Compression mode : Lossy
Delay relative to video : 1s 0ms
Stream size : 394 MiB (13%)
Title : Espanol Latino
Default : Yes
Forced : No
Audio #2
ID : 3
Format : AC-3
Format/Info : Audio Coding 3
Mode extension : CM (complete main)
Format settings, Endianness : Big Codec ID : A_AC3
Duration : 1h 47mn
Bit rate mode : Constant
Bit rate : 512 Kbps
Channel count : 6 channels
Channel positions : Front: L C R, Side: L R, LFE
Sampling rate : 48.0 KHz
Bit depth : 16 bits
Compression mode : Lossy
Stream size : 394 MiB (13%)
Title : Ingles
Default : No
Forced : No
Text #1
ID : 4
Format : UTF-8
Codec ID : S_TEXT/UTF8
Codec ID/Info : UTF-8
Default : Yes
Forced : No
Text #2
ID : 5
Format : UTF-8
Codec ID : S_TEXT/UTF8
Codec ID/Info : UTF-8
Plain Text Title : Subtitulos Espanol
Default : No
Forced : No









Código: You are not allowed to view links. Register or Login
http://www.uploadable.ch/file/hvK3g4qrWXEV/tfasfurg2hd.part01.rar
http://www.uploadable.ch/file/6uurKFycsTFr/tfasfurg2hd.part02.rar
http://www.uploadable.ch/file/nh7ExBDV2gEz/tfasfurg2hd.part03.rar
http://www.uploadable.ch/file/M89KySmmER6r/tfasfurg2hd.part04.rar
http://www.uploadable.ch/file/st4XVUSMD4Dq/tfasfurg2hd.part05.rar
http://www.uploadable.ch/file/R58Cn6XywVae/tfasfurg2hd.part06.rar
http://www.uploadable.ch/file/NXvJm8uTUbAc/tfasfurg2hd.part07.rar
http://www.uploadable.ch/file/zJb7RT8UYzeB/tfasfurg2hd.part08.rar
http://www.uploadable.ch/file/HbSteccgDDHj/tfasfurg2hd.part09.rar
http://www.uploadable.ch/file/hejRa5y9zEpY/tfasfurg2hd.part10.rar
http://www.uploadable.ch/file/2J6WfEccNJNa/tfasfurg2hd.part11.rar
http://www.uploadable.ch/file/fScRqM5hxcNP/tfasfurg2hd.part12.rar
http://www.uploadable.ch/file/hehgqJKDhaa5/tfasfurg2hd.part13.rar


Código: You are not allowed to view links. Register or Login
http://vozupload.com/ddodeptsrqqy/tfasfurg2hd.part01.rar.html
http://vozupload.com/jhvz2sq6vl82/tfasfurg2hd.part02.rar.html
http://vozupload.com/0c4m9fujsqat/tfasfurg2hd.part03.rar.html
http://vozupload.com/ngxem0snhwr7/tfasfurg2hd.part04.rar.html
http://vozupload.com/tjiw1xuu1h3x/tfasfurg2hd.part05.rar.html
http://vozupload.com/bfyo75qrm01i/tfasfurg2hd.part06.rar.html
http://vozupload.com/3mohshjdkiuf/tfasfurg2hd.part07.rar.html
http://vozupload.com/8g2thtwzqfk7/tfasfurg2hd.part08.rar.html
http://vozupload.com/5yjf0x29hf1i/tfasfurg2hd.part09.rar.html
http://vozupload.com/9v8kifsf5cfy/tfasfurg2hd.part10.rar.html
http://vozupload.com/2cam2uh42kxb/tfasfurg2hd.part11.rar.html
http://vozupload.com/9pgr7ujc5m9x/tfasfurg2hd.part12.rar.html
http://vozupload.com/jo1zvrefswu8/tfasfurg2hd.part13.rar.html

Desconectado pomposos

  • Gran Experto
  • *****
  • Mensajes: 4456
The Fast and the Furious Tokyo Drift [2006][FullHD 1080]
« Respuesta #2 en: Junio 05, 2014, 05:40:02 pm »

Código: You are not allowed to view links. Register or Login
http://www.imdb.com/title/tt0463985/
Titulo original The Fast and the Furious: Tokyo Drift
Ano 2006
Duracion 104 min.
Pais Estados Unidos
Director Justin Lin
Guion Alfredo Botello, Chris Morgan, Kario Salem
Musica Brian Tyler
Fotografia Stephen F. Windon
Reparto Lucas Black, Damien Marzette, Nathalie Kelley, Brian Tee, Sung Kang, Bow Wow, Trula M. Marcus, Zachery Ty Bryan, Amber Stevens, Kaila Yu, Aiko Tanaka, Nikki Griffin, Vin Diesel
Productora Universal Pictures
Genero Accion. Thriller | Secuela. Coches / Automovilismo
Sinopsis Shaun Boswell es un chico que no acaba de encajar en ningun grupo. En el instituto es un solitario, su unica conexion con el mundo de indiferencia que le rodea es a traves de las carreras ilegales, lo que no le ha convertido en el chico favorito de la policia. Cuando amenazan con encarcelarle, le mandan fuera del pais a pasar una temporada con su tio, un militar destinado en Japon, que vive en un diminuto piso en un barrio barato de Tokio. En el pais donde nacieron la mayoria de los coches modificados, las simples carreras en la calle principal han sido sustituidas por el ultimo reto automovilistico que desafia la gravedad, las carreras de "drift" (arrastre), una peligrosa mezcla de velocidad en pistas con curvas muy cerradas y en zigzag. En su primera incursion en el salvaje mundo de las carreras de "drift", Shaun acepta ingenuamente conducir un D.K, el Rey del Drift, que pertenece a los Yakuza, la mafia japonesa. Para pagar su deuda, no tiene mas remedio que codearse con el hampa de Tokio y jugarse la vida.

Código: You are not allowed to view links. Register or Login
General
Complete name : Rapido Y Furioso 3 (2006) 1080p Dual.mkv
Format : Matroska
Format version : Version 4 / Version 2
File size : 3.03 GiB
Duration : 1h 44mn
Overall bit rate : 4 166 Kbps
Movie name : The Fast and Furious Tokyo Drift [2006][1080p Dual]
Encoded date : UTC 2013-11-16 15:05:38
Writing application : mkvmerge v6.0.0 ('Coming Up For Air') built on Jan 20 2013 09:52:00
Writing library : libebml v1.3.0 + libmatroska v1.4.0
Video ID : 1 Format : AVC
Format/Info : Advanced Video Codec
Format profile : High@L4.0
Format settings, CABAC : Yes
Format settings, ReFrames : 4 frames
Codec ID : V_MPEG4/ISO/AVC
Duration : 1h 44mn
Bit rate : 3 143 Kbps
Width : 1 920 pixels
Height : 1 080 pixels
Display aspect ratio : 16:9
Frame rate mode : Constant
Frame rate : 23.976 fps
Color space : YUV
Chroma subsampling : 4:2:0
Bit depth : 8 bits
Scan type : Progressive Bits/(Pixel*Frame) : 0.063
Stream size : 2.23 GiB (73%)
Writing library : x264 core 133 r2334 a3ac64b
Default: Yes
Forced : No
Audio #1
ID : 2
Format : AC-3
Format/Info : Audio Coding 3
Mode extension : CM (complete main)
Format settings, Endianness : Big Codec
ID : A_AC3
Duration : 1h 44mn
Bit rate mode : Constant
Bit rate : 512 Kbps
Channel count : 6 channels
Channel positions : Front: L C R, Side: L R, LFE
Sampling rate : 48.0 KHz
Bit depth : 16 bits
Compression mode : Lossy
Stream size : 382 MiB (12%)
Title : Espanol Latino
Default : Yes
Forced : No
Audio #2
ID : 3
Format : AC-3
Format/Info : Audio Coding 3
Mode extension : CM (complete main)
Format settings, Endianness : Big
Codec ID : A_AC3
Duration : 1h 44mn
Bit rate mode : Constant
Bit rate : 512 Kbps
Channel count : 6 channels
Channel positions : Front: L C R, Side: L R, LFE
Sampling rate : 48.0 KHz
Bit depth : 16 bits
Compression mode : Lossy
Stream size : 382 MiB (12%)
Title : Ingles
Default : No
Forced : No
Text #1
ID : 4
Format : UTF-8
Codec ID : S_TEXT/UTF8
Codec ID/Info : UTF-8
Default : Yes
Forced : No
Text #2
ID : 5
Format : UTF-8
Codec ID : S_TEXT/UTF8
Codec ID/Info : UTF-8
Plain Text Title : Subtitulos Espanol
Default : No
Forced : No









Código: You are not allowed to view links. Register or Login
http://www.uploadable.ch/file/624HCFrphsQy/tfasfurg3hd.part01.rar
http://www.uploadable.ch/file/RhZdvK3yVvtk/tfasfurg3hd.part02.rar
http://www.uploadable.ch/file/8nvBAsfQgunu/tfasfurg3hd.part03.rar
http://www.uploadable.ch/file/uz4QW9Cjet9x/tfasfurg3hd.part04.rar
http://www.uploadable.ch/file/X4Pgf9uDBmw6/tfasfurg3hd.part05.rar
http://www.uploadable.ch/file/JSyca2VueCjR/tfasfurg3hd.part06.rar
http://www.uploadable.ch/file/ee4j9qFSayum/tfasfurg3hd.part07.rar
http://www.uploadable.ch/file/rzpM7GvvBxFK/tfasfurg3hd.part08.rar
http://www.uploadable.ch/file/9xjbsuWxp9ut/tfasfurg3hd.part09.rar
http://www.uploadable.ch/file/eC3z6w2ez2BD/tfasfurg3hd.part10.rar
http://www.uploadable.ch/file/eAgdNA6yV39e/tfasfurg3hd.part11.rar
http://www.uploadable.ch/file/3Q7sMWmG73sk/tfasfurg3hd.part12.rar
http://www.uploadable.ch/file/3NfQ9DNtAMPg/tfasfurg3hd.part13.rar


Código: You are not allowed to view links. Register or Login
http://vozupload.com/3khmupud5fc2/tfasfurg3hd.part01.rar.html
http://vozupload.com/z9hnqxzq4utd/tfasfurg3hd.part02.rar.html
http://vozupload.com/ik3kaupwy35z/tfasfurg3hd.part03.rar.html
http://vozupload.com/yr8dwzyk60v2/tfasfurg3hd.part04.rar.html
http://vozupload.com/hz9qd9omklan/tfasfurg3hd.part05.rar.html
http://vozupload.com/1uv5x73an6gr/tfasfurg3hd.part06.rar.html
http://vozupload.com/50u79tzj4lfd/tfasfurg3hd.part07.rar.html
http://vozupload.com/0jhjfryuo0jl/tfasfurg3hd.part08.rar.html
http://vozupload.com/aa5hw40cn44c/tfasfurg3hd.part09.rar.html
http://vozupload.com/3bc952xzff7a/tfasfurg3hd.part10.rar.html
http://vozupload.com/p2eyzrcyd0t7/tfasfurg3hd.part11.rar.html
http://vozupload.com/cdxn25qg1dz4/tfasfurg3hd.part12.rar.html
http://vozupload.com/jm41zue4x8my/tfasfurg3hd.part13.rar.html

Desconectado pomposos

  • Gran Experto
  • *****
  • Mensajes: 4456
Fast and Furious 4 [2009][FullHD 1080]
« Respuesta #3 en: Junio 05, 2014, 05:49:18 pm »

Código: You are not allowed to view links. Register or Login
http://www.imdb.com/title/tt1013752/
Titulo original Fast and Furious 4 (Fast and Furious)
Ano 2009
Duracion 107 min.
Pais Estados Unidos
Director Justin Lin
Guion Chris Morgan
Musica Brian Tyler
Fotografia Amir M. Mokri
Reparto Vin Diesel, Paul Walker, Michelle Rodriguez, Jordana Brewster, Sung Kang, John Ortiz, Laz Alonso, Gal Gadot, Tego Calderon, Don Omar, Jordana Brewster
Productora Universal Pictures
Genero Accion | Coches / Automovilismo. Secuela
Sinopsis El fugitivo Dom Toretto (Vin Diesel) y el detective Brian O'Conner (Paul Walker) vuelven a encontrarse en Los Angeles, pero sus relaciones no mejoran. Sin embargo, obligados a enfrentarse a un enemigo comun, no les queda mas remedio que unir sus fuerzas si quieren vencerlo. Despues del atraco a un convoy, los dos protagonistas averiguan que si quieren vengarse, deberan llegar al limite de sus posibilidades al volante

Código: You are not allowed to view links. Register or Login
General
Complete name : Rapido Y Furioso 4 (2009) 1080p Dual.mkv
Format : Matroska
Format version : Version 4 / Version 2
File size : 3.05 GiB
Duration : 1h 46mn
Overall bit rate : 4 091 Kbps
Movie name : Fast and Furious [2009][1080p Dual]
Encoded date : UTC 2013-11-15 23:04:32
Writing application : mkvmerge v6.0.0 ('Coming Up For Air') built on Jan 20 2013 09:52:00
Writing library : libebml v1.3.0 + libmatroska v1.4.0 Video ID : 1 Format : AVC
Format/Info : Advanced Video Codec
Format profile : High@L4.0
Format settings, CABAC : Yes
Format settings, ReFrames : 4 frames
Codec ID : V_MPEG4/ISO/AVC
Duration : 1h 46mn
Bit rate : 3 069 Kbps
Width : 1 920 pixels
Height : 1 080 pixels
Display aspect ratio : 16:9
Frame rate mode : Constant
Frame rate : 23.976 fps
Color space : YUV
Chroma subsampling : 4:2:0
Bit depth : 8 bits
Scan type : Progressive Bits/(Pixel*Frame) : 0.062
Stream size : 2.23 GiB (73%)
Writing library : x264 core 133 r2334 a3ac64b
Default : Yes
Forced : No
Audio #1
ID : 2
Format : AC-3
Format/Info : Audio Coding 3
Mode extension : CM (complete main)
Format settings, Endianness : Big
Codec ID : A_AC3
Duration : 1h 46mn
Bit rate mode : Constant
Bit rate : 512 Kbps
Channel count : 6 channels
Channel positions : Front: L C R, Side: L R, LFE
Sampling rate : 48.0 KHz
Bit depth : 16 bits
Compression mode : Lossy
Stream size : 391 MiB (13%)
Title : Espanol Latino
Default : Yes
Forced : No
Audio #2
ID : 3
Format : AC-3
Format/Info : Audio
Coding 3 Mode extension : CM (complete main)
Format settings, Endianness : Big
Codec ID : A_AC3
Duration : 1h 46mn
Bit rate mode : Constant
Bit rate : 512 Kbps
Channel count : 6 channels
Channel positions : Front: L C R, Side: L R, LFE
Sampling rate : 48.0 KHz
Bit depth : 16 bits
Compression mode : Lossy
Stream size : 391 MiB (13%)
Title : Ingles
Default : No
Forced : No
Text #1
ID : 4
Format : UTF-8
Codec ID : S_TEXT/UTF8
Codec ID/Info : UTF-8
Default : Yes
Forced : No
Text #2
ID : 5
Format : UTF-8
Codec ID : S_TEXT/UTF8
Codec ID/Info : UTF-8
Plain Text Title : Subtitulos Espanol
Default : No Forced : No









Código: You are not allowed to view links. Register or Login
http://www.uploadable.ch/file/nweENdwyThEe/tfasfurg4hd.part01.rar
http://www.uploadable.ch/file/p77VZjQHRgnV/tfasfurg4hd.part02.rar
http://www.uploadable.ch/file/JwkhPYNTtACD/tfasfurg4hd.part03.rar
http://www.uploadable.ch/file/VwkaqE55sscM/tfasfurg4hd.part04.rar
http://www.uploadable.ch/file/bBxTqTz44BQX/tfasfurg4hd.part05.rar
http://www.uploadable.ch/file/AU4QzZJyh9gZ/tfasfurg4hd.part06.rar
http://www.uploadable.ch/file/kamUhvv9w7sN/tfasfurg4hd.part07.rar
http://www.uploadable.ch/file/VCEJKGJ5VgYB/tfasfurg4hd.part08.rar
http://www.uploadable.ch/file/63E9W535Crdv/tfasfurg4hd.part09.rar
http://www.uploadable.ch/file/Mf5gSW7NrRXn/tfasfurg4hd.part10.rar
http://www.uploadable.ch/file/EAvkVg572wwU/tfasfurg4hd.part11.rar
http://www.uploadable.ch/file/7RxB69Mnue4K/tfasfurg4hd.part12.rar
http://www.uploadable.ch/file/p6JAMyyk939x/tfasfurg4hd.part13.rar


Código: You are not allowed to view links. Register or Login
http://vozupload.com/bwv5epliudgk/tfasfurg4hd.part01.rar.html
http://vozupload.com/zv6qi4hap65f/tfasfurg4hd.part02.rar.html
http://vozupload.com/ieoa6udemmy5/tfasfurg4hd.part03.rar.html
http://vozupload.com/3htv518mraai/tfasfurg4hd.part04.rar.html
http://vozupload.com/tdv3me8tlbre/tfasfurg4hd.part05.rar.html
http://vozupload.com/h16go911rwl9/tfasfurg4hd.part06.rar.html
http://vozupload.com/hxbalfkpr1j0/tfasfurg4hd.part07.rar.html
http://vozupload.com/4u74ycgdnk7z/tfasfurg4hd.part08.rar.html
http://vozupload.com/dmdfhwd97hqn/tfasfurg4hd.part09.rar.html
http://vozupload.com/lla2b3fd4bci/tfasfurg4hd.part10.rar.html
http://vozupload.com/ugwpa0a6vvry/tfasfurg4hd.part11.rar.html
http://vozupload.com/s9sht3b7e142/tfasfurg4hd.part12.rar.html
http://vozupload.com/4k99c7fjm7fq/tfasfurg4hd.part13.rar.html

Desconectado pomposos

  • Gran Experto
  • *****
  • Mensajes: 4456
Fast and Furious 6 [2013][FullHD 1080]
« Respuesta #4 en: Junio 05, 2014, 06:07:48 pm »

Código: You are not allowed to view links. Register or Login
http://www.imdb.com/title/tt1905041/
Titulo original Fast & Furious 6 (Fast and Furious 6)
Ano 2013
Duracion 130 min.
Pais Estados Unidos
Director Justin Lin
Guion Chris Morgan
Musica Lucas Vidal
Fotografia Stephen F. Windon
Reparto Vin Diesel, Paul Walker, Dwayne "The Rock" Johnson, Gina Carano, Michelle Rodriguez, Luke Evans, Jordana Brewster, Elsa Pataky, Sung Kang, Gal Gadot, Ludacris, Tyrese Gibson, Joe Taslim, Rita Ora
Productora Universal Pictures / Original Film / Etalon film
Genero Accion. Thriller | Crimen. Coches / Automovilismo. Terrorismo. Secuela
Sinopsis Desde que Dom (Vin Diesel) y Brian (Paul Walker) destruyeron el imperio de un mafioso y se hicieron con cien millones de dolares, se encuentran en paradero desconocido; no pueden regresar a casa porque la ley los persigue. Entretanto, Hobbs (Dwayne Johnson) ha seguido la pista por una docena de paises a una banda de letales conductores mercenarios, cuyo cerebro (Luke Evans) cuenta con la inestimable ayuda de la sexy Letty (Michelle Rodriguez), un viejo amor de Dom que este daba por muerta. La unica forma de detenerlos es enfrentarse a ellos en las calles, asi' que Hobbs le pide a Dom que reuna a su equipo en Londres. ¿Que obtendran a cambio? Un indulto para que todos puedan volver a casa con sus familias.

Código: You are not allowed to view links. Register or Login
General
Complete name : Rapido Y Furioso 6 (2013) 1080p Dual.mkv
Format : Matroska
Format version : Version 4 / Version 2
File size : 3.05 GiB
Duration : 2h 11mn
Overall bit rate : 3 323 Kbps
Movie name : Fast and Furious 6 [2013][1080p Dual]
Encoded date : UTC 2013-11-19 21:38:56
Writing application : mkvmerge v6.0.0 ('Coming Up For Air') built on Jan 20 2013 09:52:00
Writing library : libebml v1.3.0 + libmatroska v1.4.0
Video
ID : 1
Format : AVC
Format/Info : Advanced Video Codec
Format profile : High@L4.0
Format settings, CABAC : Yes
Format settings, ReFrames : 4 frames
Codec ID : V_MPEG4/ISO/AVC
Duration : 2h 11mn
Bit rate : 2 499 Kbps
Width : 1 920 pixels
Height : 1 080 pixels
Display aspect ratio : 16:9
Frame rate mode : Constant
Frame rate : 23.976 fps
Color space : YUV
Chroma subsampling : 4:2:0
Bit depth : 8 bits
Scan type : Progressive
Bits/(Pixel*Frame) : 0.050
Stream size : 2.23 GiB (73%)
Writing library : x264 core 133 r2334 a3ac64b
Default : Yes
Forced : No
Audio #1
ID : 2
Format : AC-3
Format/Info : Audio Coding 3
Mode extension : CM (complete main)
Format settings, Endianness : Big
Codec ID : A_AC3
Duration : 2h 11mn
Bit rate mode : Constant
Bit rate : 448 Kbps
Channel count : 6 channels
Channel positions : Front: L C R, Side: L R, LFE
Sampling rate : 48.0 KHz
Bit depth : 16 bits
Compression mode : Lossy
Stream size : 421 MiB (13%)
Title : Espanol Latino
Default : Yes
Forced : No
Audio #2
ID : 3
Format : AC-3
Format/Info : Audio Coding 3
Mode extension : CM (complete main)
Format settings, Endianness : Big
Codec ID : A_AC3
Duration : 2h 11mn
Bit rate mode : Constant
Bit rate : 384 Kbps
Channel count : 6 channels
Channel positions : Front: L C R, Side: L R, LFE
Sampling rate : 48.0 KHz
Bit depth : 16 bits
Compression mode : Lossy
Stream size : 361 MiB (12%)
Title : Ingles
Default : No
Forced : No
Text #1
ID : 4
Format : UTF-8
Codec ID : S_TEXT/UTF8
Codec ID/Info : UTF-8 Plain Text
Title : Sub Forzados
Default : Yes
Forced : No
Text #2
ID : 5
Format : UTF-8
Codec ID : S_TEXT/UTF8
Codec ID/Info : UTF-8 Plain Text
Title : Subtitulos Espanol
Default : No
Forced : No









Código: You are not allowed to view links. Register or Login
http://www.uploadable.ch/file/rvefSAqWCUzq/tfasfurg6hd.part01.rar
http://www.uploadable.ch/file/csqzpgb3g4zP/tfasfurg6hd.part02.rar
http://www.uploadable.ch/file/KYJm9dtkHr9t/tfasfurg6hd.part03.rar
http://www.uploadable.ch/file/QejbGWFhdhAH/tfasfurg6hd.part04.rar
http://www.uploadable.ch/file/txBERA5M9gfC/tfasfurg6hd.part05.rar
http://www.uploadable.ch/file/XsaTwqVEBsA7/tfasfurg6hd.part06.rar
http://www.uploadable.ch/file/3Nx8qzFn8MAu/tfasfurg6hd.part07.rar
http://www.uploadable.ch/file/S9cNX5ZuhEMy/tfasfurg6hd.part08.rar
http://www.uploadable.ch/file/urmkPUf2G5SV/tfasfurg6hd.part09.rar
http://www.uploadable.ch/file/6SKWcEeehT99/tfasfurg6hd.part10.rar
http://www.uploadable.ch/file/dtz9zsfHznAy/tfasfurg6hd.part11.rar
http://www.uploadable.ch/file/jmzTnDGgYf8x/tfasfurg6hd.part12.rar
http://www.uploadable.ch/file/x6ftZax4BBvE/tfasfurg6hd.part13.rar


Código: You are not allowed to view links. Register or Login
http://vozupload.com/kuc2oc34lsks/tfasfurg6hd.part01.rar.html
http://vozupload.com/micxn7dt76s8/tfasfurg6hd.part02.rar.html
http://vozupload.com/wkv4gnnwhj51/tfasfurg6hd.part03.rar.html
http://vozupload.com/vta9ds08a08l/tfasfurg6hd.part04.rar.html
http://vozupload.com/ag1dn25iozpi/tfasfurg6hd.part05.rar.html
http://vozupload.com/pmelwa0b8qtm/tfasfurg6hd.part06.rar.html
http://vozupload.com/3m667ev5ndp1/tfasfurg6hd.part07.rar.html
http://vozupload.com/d0ckk10u64h9/tfasfurg6hd.part08.rar.html
http://vozupload.com/on40joummwfq/tfasfurg6hd.part09.rar.html
http://vozupload.com/53j3e4him73o/tfasfurg6hd.part10.rar.html
http://vozupload.com/e59wyh9kvl43/tfasfurg6hd.part11.rar.html
http://vozupload.com/vrpht40wd6k5/tfasfurg6hd.part12.rar.html
http://vozupload.com/nb6680bwe5c1/tfasfurg6hd.part13.rar.html

Tags:
Tags:

 


SMF 2.0.11 | SMF © 2015, Simple Machines
Paginas Afiliadas
Twitter - FaceBook - Daraxblog
Designed by Smf Personal