Bienvenido a Tecnohackers

Tecnohackers » Cultura y Ocio » Mundo Cine » Joyas del Cine
 » 

A Nightmare on Elm Street - Saga



Autor Tema: A Nightmare on Elm Street - Saga  (Leído 257 veces)

Desconectado pomposos

  • Gran Experto
  • *****
  • Mensajes: 4456
A Nightmare on Elm Street - Saga
« en: Mayo 10, 2014, 06:43:40 am »

Código: You are not allowed to view links. Register or Login
http://www.imdb.com/title/tt0087800/
Titulo original A Nightmare on Elm Street
Ano 1984
Duracion 91 min.
Pais Estados Unidos
Director Wes Craven
Guion Wes Craven
Musica Charles Bernstein
Fotografia Jacques Haitkin
Reparto Heather Langenkamp, Robert Englund, Johnny Depp, John Saxon, Charles Fleischer, Nick Corri, Amanda Wyss, Ronee Blakley
Productora New Line Cinema
Genero Terror | Slasher. Pelicula de culto
Sinopsis Varios jovenes de una pequena localidad tienen habitualmente pesadillas en las que son perseguidos por un hombre deformado por el fuego y que usa un guante terminado en afiladas cuchillas. Algunos de ellos comienzan a ser asesinados mientras duermen por este ser, que resulta ser un asesino al que los padres de estos jovenes quemaron vivo hace varios anos tras descubrir que habia asesinado a varios ninos.

Código: You are not allowed to view links. Register or Login
Format : Matroska
Format version : Version 4 / Version 2
File size : 2.18 GiB
Duration : 1h 31mn
Overall bit rate : 3 429 Kbps
Movie name : A Nightmare on Elm Street (1984) FULL 1080p Subtitulada
Encoded date : UTC 2014-04-27 12:00:29
Writing application : mkvmerge v6.5.0 ('Isn't she lovely') built on Oct 20 2013 12:50:05
Writing library : libebml v1.3.0 + libmatroska v1.4.1
Video
ID : 1
Format : AVC
Format/Info : Advanced Video Codec
Format profile : High@L4.1
Format settings, CABAC : Yes
Format settings, ReFrames : 2 frames
Codec ID : V_MPEG4/ISO/AVC
Duration : 1h 31mn
Bit rate : 2 913 Kbps
Width : 1 920 pixels
Height : 1 080 pixels
Display aspect ratio : 16:9
Frame rate mode : Constant
Frame rate : 23.976 fps
Color space : YUV
Chroma subsampling : 4:2:0
Bit depth : 8 bits
Scan type : Progressive
Bits/(Pixel*Frame) : 0.059
Stream size : 1.86 GiB (85%)
Title : [url=http://WwW.CinemaniaHD.org]WwW.CinemaniaHD.org[/url]
Writing library : x264 core
Default : Yes
Forced : No
Color primaries : BT.709
Transfer characteristics : BT.709
Matrix coefficients : BT.709
Audio
ID : 2
Format : AC-3
Format/Info : Audio Coding 3
Mode extension : CM (complete main)
Format settings, Endianness : Big
Codec ID : A_AC3
Duration : 1h 31mn
Bit rate mode : Constant
Bit rate : 448 Kbps
Channel count : 6 channels
Channel positions : Front: L C R, Side: L R, LFE
Sampling rate : 48.0 KHz
Bit depth : 16 bits
Compression mode : Lossy
Stream size : 292 MiB (13%)
Title : Audio Ingles
Language : English
Default : Yes
Forced : No
Text #1
ID : 3
Format : VobSub
Muxing mode : zlib
Codec ID : S_VOBSUB
Codec ID/Info : The same subtitle format used on DVDs
Title : Subtitulos Latino
Language : Spanish
Default : Yes
Forced : No
Text #2
ID : 4
Format : VobSub
Muxing mode : zlib
Codec ID : S_VOBSUB
Codec ID/Info : The same subtitle format used on DVDs
Title : Subtitulos Ingles
Language : English
Default : No
Forced : No









Código: You are not allowed to view links. Register or Login
http://www.uploadable.ch/file/HdMNCEeCv6hW/anigmfrd1.part01.rar
http://www.uploadable.ch/file/fPg3tVQXJwqX/anigmfrd1.part02.rar
http://www.uploadable.ch/file/Z4S39E5CemPE/anigmfrd1.part03.rar
http://www.uploadable.ch/file/NZ2dftJt596h/anigmfrd1.part04.rar
http://www.uploadable.ch/file/DNbZwvapyMG8/anigmfrd1.part05.rar
http://www.uploadable.ch/file/GGVSBtCRanrh/anigmfrd1.part06.rar
http://www.uploadable.ch/file/WV96z5ufNbfV/anigmfrd1.part07.rar
http://www.uploadable.ch/file/5jhhWZTFWnC4/anigmfrd1.part08.rar
http://www.uploadable.ch/file/phqs6bkQ72W5/anigmfrd1.part09.rar

Desconectado pomposos

  • Gran Experto
  • *****
  • Mensajes: 4456
A Nightmare on Elm Street II [1985][FullHD 1080]
« Respuesta #1 en: Mayo 10, 2014, 07:07:54 am »

Código: You are not allowed to view links. Register or Login
http://www.imdb.com/title/tt0089686/
Titulo original A Nightmare on Elm Street II: Freddy's Revenge
Ano 1985
Duracion 83 min.
Pais Estados Unidos
Director Jack Sholder
Guion David Chaskin (Personaje: Wes Craven)
Musica Christopher Young
Fotografia Jacques Haitkin
Reparto Robert Englund, Mark Patton, Kim Myers, Robert Rusler, Clu Gulager, Hope Lange, Marshall Bell
Productora New Line Cinema
Genero Terror | Slasher. Secuela
Sinopsis Una familia llega a una casa en la que cinco anos antes se habian cometido varios crimenes. Poco despues, el hijo comienza a tener unas horribles pesadillas que le empujan al asesinato.

Código: You are not allowed to view links. Register or Login
Format : Matroska
Format version : Version 4 / Version 2
File size : 1.93 GiB
Duration : 1h 25mn
Overall bit rate : 3 230 Kbps
Movie name : A Nightmare on Elm Street 2 Freddy's Revenge (1985) FULL 1080p
Encoded date : UTC 2014-04-27 12:16:24
Writing application : mkvmerge v6.5.0 ('Isn't she lovely') built on Oct 20 2013 12:50:05
Writing library : libebml v1.3.0 + libmatroska v1.4.1
Video
ID : 1
Format : AVC
Format/Info : Advanced Video Codec
Format profile : High@L4.1
Format settings, CABAC : Yes
Format settings, ReFrames : 2 frames
Codec ID : V_MPEG4/ISO/AVC
Duration : 1h 25mn
Bit rate : 2 909 Kbps
Width : 1 920 pixels
Height : 1 080 pixels
Display aspect ratio : 16:9
Frame rate mode : Constant
Frame rate : 23.976 fps
Color space : YUV
Chroma subsampling : 4:2:0
Bit depth : 8 bits
Scan type : Progressive
Bits/(Pixel*Frame) : 0.059
Stream size : 1.74 GiB (90%)
Title : [url=http://WwW.CinemaniaHD.org]WwW.CinemaniaHD.org[/url]
Writing library : x264 core
Default : Yes
Forced : No
Color primaries : BT.709
Transfer characteristics : BT.709
Matrix coefficients : BT.709
Audio #1
ID : 2
Format : AC-3
Format/Info : Audio Coding 3
Mode extension : CM (complete main)
Format settings, Endianness : Big
Codec ID : A_AC3
Duration : 1h 25mn
Bit rate mode : Constant
Bit rate : 128 Kbps
Channel count : 1 channel
Channel positions : Front: C
Sampling rate : 48.0 KHz
Bit depth : 16 bits
Compression mode : Lossy
Stream size : 78.4 MiB (4%)
Title : Audio Latino
Language : Spanish
Default : Yes
Forced : No
Audio #2
ID : 3
Format : AC-3
Format/Info : Audio Coding 3
Mode extension : CM (complete main)
Format settings, Endianness : Big
Codec ID : A_AC3
Duration : 1h 25mn
Bit rate mode : Constant
Bit rate : 128 Kbps
Channel count : 1 channel
Channel positions : Front: C
Sampling rate : 48.0 KHz
Bit depth : 16 bits
Compression mode : Lossy
Stream size : 78.4 MiB (4%)
Title : Audio Ingles
Language : English
Default : No
Forced : No
Text #1
ID : 4
Format : UTF-8
Codec ID : S_TEXT/UTF8
Codec ID/Info : UTF-8 Plain Text
Default : Yes
Forced : No
Text #2
ID : 5
Format : VobSub
Muxing mode : zlib
Codec ID : S_VOBSUB
Codec ID/Info : The same subtitle format used on DVDs
Title : Subtitulos Latino
Language : Spanish
Default : No
Forced : No
Text #3
ID : 6
Format : VobSub
Muxing mode : zlib
Codec ID : S_VOBSUB
Codec ID/Info : The same subtitle format used on DVDs
Title : Subtitulos Ingles
Language : English
Default : No
Forced : No









Código: You are not allowed to view links. Register or Login
http://www.uploadable.ch/file/MuEqgAbWWjyv/anigmfrd2.part01.rar
http://www.uploadable.ch/file/guEqe7cJDudB/anigmfrd2.part02.rar
http://www.uploadable.ch/file/ZQ5YGp3hHhD3/anigmfrd2.part03.rar
http://www.uploadable.ch/file/CWsV5NjqeSa7/anigmfrd2.part04.rar
http://www.uploadable.ch/file/Rb5EQXmYpjrj/anigmfrd2.part05.rar
http://www.uploadable.ch/file/g2wZ2eaetjtE/anigmfrd2.part06.rar
http://www.uploadable.ch/file/9K96WQFtGZg8/anigmfrd2.part07.rar
http://www.uploadable.ch/file/kAMXbavPgZh9/anigmfrd2.part08.rar

Desconectado pomposos

  • Gran Experto
  • *****
  • Mensajes: 4456
A Nightmare on Elm Street III [1987][FullHD 1080]
« Respuesta #2 en: Mayo 10, 2014, 07:32:07 am »

Código: You are not allowed to view links. Register or Login
http://www.imdb.com/title/tt0095742/
Titulo original A Nightmare on Elm Street III: Dream Warriors
Ano 1987
Duracion 96 min.
Pais Estados Unidos
Director Chuck Russell (AKA Charles Russell)
Guion Wes Craven, Bruce Wagner, Chuch Russell, Frank Darabont
Musica Angelo Badalamenti
Fotografia Roy H. Wagner
Reparto Heather Langenkamp, Patricia Arquette, Craig Wasson, Robert Englund, Ken Sagoes, Rodney Eastman, Ira Heiden, Jennifer Rubin, Laurence Fishburne, John Saxon, Priscilla Pointer, Nan Martin, Brooke Bundy, Bradley Gregg, Penelope Sudrow
Productora New Line Cinema
Genero Terror. Fantastico | Slasher. Secuela
Sinopsis Anos despues de los incidentes en El St. Nancy se ha convertido en una psiquiatra especializada en terapia del sueno, pero Freddy tambien sigue en activo, y comienza a parecerse en los suenos de varios de ellos. Nancy los reune a todos en busca de una forma de parar al monstruo. Para ello, los pacientes aprenden a desarrollar habilidades especiales en su suenos. Alguno puede ser un mago, otro un superforzudo, un maestro en artes marciales

Código: You are not allowed to view links. Register or Login
Format : Matroska
Format version : Version 4 / Version 2
File size : 2.59 GiB
Duration : 1h 36mn
Overall bit rate : 3 835 Kbps
Movie name : A Nightmare on Elm Street 3 Dream Warriors (1987) FULL 1080p
Encoded date : UTC 2014-04-27 12:29:04
Writing application : mkvmerge v6.5.0 ('Isn't she lovely') built on Oct 20 2013 12:50:05
Writing library : libebml v1.3.0 + libmatroska v1.4.1
Video
ID : 1
Format : AVC
Format/Info : Advanced Video Codec
Format profile : High@L4.1
Format settings, CABAC : Yes
Format settings, ReFrames : 2 frames
Codec ID : V_MPEG4/ISO/AVC
Duration : 1h 36mn
Bit rate : 2 862 Kbps
Width : 1 920 pixels
Height : 1 080 pixels
Display aspect ratio : 16:9
Frame rate mode : Constant
Frame rate : 23.976 fps
Color space : YUV
Chroma subsampling : 4:2:0
Bit depth : 8 bits
Scan type : Progressive
Bits/(Pixel*Frame) : 0.058
Stream size : 1.93 GiB (75%)
Title : [url=http://WwW.CinemaniaHD.org]WwW.CinemaniaHD.org[/url]
Writing library : x264 core
Default : Yes
Forced : No
Color primaries : BT.709
Transfer characteristics : BT.709
Matrix coefficients : BT.709
Audio #1
ID : 2
Format : AC-3
Format/Info : Audio Coding 3
Mode extension : CM (complete main)
Format settings, Endianness : Big
Codec ID : A_AC3
Duration : 1h 36mn
Bit rate mode : Constant
Bit rate : 448 Kbps
Channel count : 1 channel
Channel positions : Front: C
Sampling rate : 48.0 KHz
Bit depth : 16 bits
Compression mode : Lossy
Stream size : 309 MiB (12%)
Title : Audio Latino
Language : Spanish
Default : Yes
Forced : No
Audio #2
ID : 3
Format : AC-3
Format/Info : Audio Coding 3
Mode extension : CM (complete main)
Format settings, Endianness : Big
Codec ID : A_AC3
Duration : 1h 36mn
Bit rate mode : Constant
Bit rate : 448 Kbps
Channel count : 6 channels
Channel positions : Front: L C R, Side: L R, LFE
Sampling rate : 48.0 KHz
Bit depth : 16 bits
Compression mode : Lossy
Stream size : 309 MiB (12%)
Title : Audio Ingles
Language : English
Default : No
Forced : No
Text #1
ID : 4
Format : UTF-8
Codec ID : S_TEXT/UTF8
Codec ID/Info : UTF-8 Plain Text
Default : Yes
Forced : No
Text #2
ID : 5
Format : VobSub
Muxing mode : zlib
Codec ID : S_VOBSUB
Codec ID/Info : The same subtitle format used on DVDs
Title : Subtitulos Latino
Language : Spanish
Default : No
Forced : No
Text #3
ID : 6
Format : VobSub
Muxing mode : zlib
Codec ID : S_VOBSUB
Codec ID/Info : The same subtitle format used on DVDs
Title : Subtitulos Ingles
Language : English
Default : No
Forced : No









Código: You are not allowed to view links. Register or Login
http://www.uploadable.ch/file/7GvukRR9bMt8/anigmfrd3.part01.rar
http://www.uploadable.ch/file/qpcDWZSd8rEW/anigmfrd3.part02.rar
http://www.uploadable.ch/file/jVBQQUczuhaw/anigmfrd3.part03.rar
http://www.uploadable.ch/file/UdGrrwxyrG9X/anigmfrd3.part04.rar
http://www.uploadable.ch/file/kZ35efWthPw5/anigmfrd3.part05.rar
http://www.uploadable.ch/file/CVyD3SXUPd5Z/anigmfrd3.part06.rar
http://www.uploadable.ch/file/Vt6pHcdw9m4z/anigmfrd3.part07.rar
http://www.uploadable.ch/file/CAKHmzuMBpYb/anigmfrd3.part08.rar
http://www.uploadable.ch/file/9yKU7nSJrGbz/anigmfrd3.part09.rar
http://www.uploadable.ch/file/3hhy2NzWtXMm/anigmfrd3.part10.rar
http://www.uploadable.ch/file/PNbdXWumQqKy/anigmfrd3.part11.rar

Desconectado pomposos

  • Gran Experto
  • *****
  • Mensajes: 4456
A Nightmare on Elm Street IV [1988][FullHD 1080]
« Respuesta #3 en: Mayo 10, 2014, 07:56:20 am »

Código: You are not allowed to view links. Register or Login
http://www.imdb.com/title/tt0095742/
Titulo original A Nightmare on Elm Street IV: The Dream Master
Ano 1988
Duracion 97 min.
Pais Estados Unidos
Director Renny Harlin
Guion Brian Helgeland & Scott Pierce (Personaje: Wes Craven)
Musica Craig Safan
Fotografia Steven Fierberg
Reparto Robert Englund, Rodney Eastman, Danny Hassel, Andras Jones, Tuesday Knight, Toy Newkirtk, Lisa Wilcox
Productora New Line Cinema
Genero Terror | Slasher. Secuela
Sinopsis Freddy Krueger vuelve a la vida despues de su aparente muerte en la entrega anterior y comienza a matar a los chicos que viven en Elm Street. Pero, Kristen, capaz de atraer a los demas dentro de sus suenos, le concede este poder especial a su amiga Alice. Sin embargo, esta se da cuenta de que Freddy esta sacando partido a este extrano poder.

Código: You are not allowed to view links. Register or Login
Format : Matroska
Format version : Version 4 / Version 2
File size : 2.51 GiB
Duration : 1h 33mn
Overall bit rate : 3 860 Kbps
Movie name : A Nightmare on Elm Street 4: The Dream Master (1988) FULL 1080p
Encoded date : UTC 2014-04-27 20:48:23
Writing application : mkvmerge v6.5.0 ('Isn't she lovely') built on Oct 20 2013 12:50:05
Writing library : libebml v1.3.0 + libmatroska v1.4.1
Video
ID : 1
Format : AVC
Format/Info : Advanced Video Codec
Format profile : High@L4.1
Format settings, CABAC : Yes
Format settings, ReFrames : 2 frames
Codec ID : V_MPEG4/ISO/AVC
Duration : 1h 33mn
Bit rate : 2 887 Kbps
Width : 1 920 pixels
Height : 1 080 pixels
Display aspect ratio : 16:9
Frame rate mode : Constant
Frame rate : 23.976 fps
Color space : YUV
Chroma subsampling : 4:2:0
Bit depth : 8 bits
Scan type : Progressive
Bits/(Pixel*Frame) : 0.058
Stream size : 1.88 GiB (75%)
Title : [url=http://WwW.CinemaniaHD.org]WwW.CinemaniaHD.org[/url]
Writing library : x264 core
Default : Yes
Forced : No
Color primaries : BT.709
Transfer characteristics : BT.709
Matrix coefficients : BT.709
Audio #1
ID : 2
Format : AC-3
Format/Info : Audio Coding 3
Mode extension : CM (complete main)
Format settings, Endianness : Big
Codec ID : A_AC3
Duration : 1h 33mn
Bit rate mode : Constant
Bit rate : 448 Kbps
Channel count : 1 channel
Channel positions : Front: C
Sampling rate : 48.0 KHz
Bit depth : 16 bits
Compression mode : Lossy
Stream size : 299 MiB (12%)
Title : Audio Latino
Language : Spanish
Default : Yes
Forced : No
Audio #2
ID : 3
Format : AC-3
Format/Info : Audio Coding 3
Mode extension : CM (complete main)
Format settings, Endianness : Big
Codec ID : A_AC3
Duration : 1h 33mn
Bit rate mode : Constant
Bit rate : 448 Kbps
Channel count : 6 channels
Channel positions : Front: L C R, Side: L R, LFE
Sampling rate : 48.0 KHz
Bit depth : 16 bits
Compression mode : Lossy
Stream size : 299 MiB (12%)
Title : Audio Ingles
Language : English
Default : No
Forced : No
Text #1
ID : 4
Format : UTF-8
Codec ID : S_TEXT/UTF8
Codec ID/Info : UTF-8 Plain Text
Default : Yes
Forced : No
Text #2
ID : 5
Format : VobSub
Muxing mode : zlib
Codec ID : S_VOBSUB
Codec ID/Info : The same subtitle format used on DVDs
Title : Subtitulos Latino
Language : Spanish
Default : No
Forced : No
Text #3
ID : 6
Format : VobSub
Muxing mode : zlib
Codec ID : S_VOBSUB
Codec ID/Info : The same subtitle format used on DVDs
Title : Subtitulos Ingles
Language : English
Default : No
Forced : No









Código: You are not allowed to view links. Register or Login
http://www.uploadable.ch/file/DdS77hCrFj93/anigmfrd4.part01.rar
http://www.uploadable.ch/file/EqnKkcwNRFNy/anigmfrd4.part02.rar
http://www.uploadable.ch/file/cvaMkdZyFwg3/anigmfrd4.part03.rar
http://www.uploadable.ch/file/kNprgSGkESgA/anigmfrd4.part04.rar
http://www.uploadable.ch/file/tXgwy7TDSmwJ/anigmfrd4.part05.rar
http://www.uploadable.ch/file/57vb7gT8UaYX/anigmfrd4.part06.rar
http://www.uploadable.ch/file/zXNMBUGyq93D/anigmfrd4.part07.rar
http://www.uploadable.ch/file/BFrs9JjQq2AB/anigmfrd4.part08.rar
http://www.uploadable.ch/file/6XJcM9gw9Tsh/anigmfrd4.part09.rar
http://www.uploadable.ch/file/FCKcga5RC8M8/anigmfrd4.part10.rar
http://www.uploadable.ch/file/sShNwnrw7fab/anigmfrd4.part11.rar

Desconectado pomposos

  • Gran Experto
  • *****
  • Mensajes: 4456
A Nightmare on Elm Street [2010][FullHD 1080]
« Respuesta #4 en: Mayo 10, 2014, 08:13:06 am »

Código: You are not allowed to view links. Register or Login
http://www.imdb.com/title/tt1179056/
Titulo original A Nightmare on Elm Street
Ano 2010
Duracion 102 min.
Pais Estados Unidos
Director Samuel Bayer
Guion Eric Heisserer, Wesley Strick (Personajes: Wes Craven)
Musica Steve Jablonsky
Fotografia Jeff Cutter
Reparto Jackie Earle Haley, Kyle Gallner, Rooney Mara, Katie Cassidy, Thomas Dekker, Kellan Lutz, Clancy Brown, Connie Britton, Lia D. Mortensen
Productora New Line Cinema
Genero Terror. Fantastico | Slasher. Sobrenatural. Remake
Sinopsis Version contemporanea del clasico del cine de terror. Un grupo de adolescentes de los suburbios empiezan a ser perseguidos por Freddy Krueger, un asesino de aspecto terrible y con el rostro quemado que trata de acabar con ellos mientras duermen. Necesitan, pues, permanecer despiertos para protegerse mutuamente. Pero, si duermen, no hay escapatoria.

Código: You are not allowed to view links. Register or Login
Format : Matroska
Format version : Version 4 / Version 2
File size : 2.54 GiB
Duration : 1h 35mn
Overall bit rate : 3 806 Kbps
Movie name : A Nightmare on Elm Street (2010) FULL 1080p
Encoded date : UTC 2014-04-28 22:40:45
Writing application : mkvmerge v6.5.0 ('Isn't she lovely') built on Oct 20 2013 12:50:05
Writing library : libebml v1.3.0 + libmatroska v1.4.1
Video
ID : 1
Format : AVC
Format/Info : Advanced Video Codec
Format profile : Main@L4.0
Format settings, CABAC : Yes
Format settings, ReFrames : 4 frames
Codec ID : V_MPEG4/ISO/AVC
Duration : 1h 35mn
Bit rate : 3 000 Kbps
Width : 1 920 pixels
Height : 1 080 pixels
Display aspect ratio : 16:9
Frame rate mode : Constant
Frame rate : 23.976 fps
Color space : YUV
Chroma subsampling : 4:2:0
Bit depth : 8 bits
Scan type : Progressive
Bits/(Pixel*Frame) : 0.060
Stream size : 1.93 GiB (76%)
Title : [url=http://WwW.CinemaniaHD.org]WwW.CinemaniaHD.org[/url]
Writing library : x264 core 130 r2273 b3065e6
Language : English
Default : Yes
Forced : No
Color primaries : BT.709
Transfer characteristics : BT.709
Matrix coefficients : BT.709
Audio #1
ID : 2
Format : AC-3
Format/Info : Audio Coding 3
Mode extension : CM (complete main)
Format settings, Endianness : Big
Codec ID : A_AC3
Duration : 1h 35mn
Bit rate mode : Constant
Bit rate : 384 Kbps
Channel count : 6 channels
Channel positions : Front: L C R, Side: L R, LFE
Sampling rate : 48.0 KHz
Bit depth : 16 bits
Compression mode : Lossy
Stream size : 262 MiB (10%)
Title : Audio Latino
Language : Spanish
Default : Yes
Forced : No
Audio #2
ID : 3
Format : AC-3
Format/Info : Audio Coding 3
Mode extension : CM (complete main)
Format settings, Endianness : Big
Codec ID : A_AC3
Duration : 1h 35mn
Bit rate mode : Constant
Bit rate : 448 Kbps
Channel count : 6 channels
Channel positions : Front: L C R, Side: L R, LFE
Sampling rate : 48.0 KHz
Bit depth : 16 bits
Compression mode : Lossy
Stream size : 306 MiB (12%)
Title : Audio Ingles
Language : English
Default : No
Forced : No
Text #1
ID : 4
Format : UTF-8
Codec ID : S_TEXT/UTF8
Codec ID/Info : UTF-8 Plain Text
Title : [url=http://WwW.CinemaniaHD.org]WwW.CinemaniaHD.org[/url]
Default : Yes
Forced : No

Text #2
ID : 5
Format : UTF-8
Codec ID : S_TEXT/UTF8
Codec ID/Info : UTF-8 Plain Text
Title : Subtitulos Latino
Language : Spanish
Default : No
Forced : No
Text #3
ID : 6
Format : PGS
Muxing mode : zlib
Codec ID : S_HDMV/PGS
Codec ID/Info : The same subtitle format used on BDs/HD-DVDs
Title : Subtitulos Ingles
Language : English
Default : No
Forced : No









Código: You are not allowed to view links. Register or Login
http://www.uploadable.ch/file/qpaqVGEq6Rtm/anigmfrd9.part01.rar
http://www.uploadable.ch/file/qfpEsTsvJGMr/anigmfrd9.part02.rar
http://www.uploadable.ch/file/8gRHKC9RSvNx/anigmfrd9.part03.rar
http://www.uploadable.ch/file/aFUfKAQz6CTa/anigmfrd9.part04.rar
http://www.uploadable.ch/file/R63cDSnBcZZv/anigmfrd9.part05.rar
http://www.uploadable.ch/file/yuMmuajPchYZ/anigmfrd9.part06.rar
http://www.uploadable.ch/file/kSTWJD673hRJ/anigmfrd9.part07.rar
http://www.uploadable.ch/file/ZjNbmgBfQyVH/anigmfrd9.part08.rar
http://www.uploadable.ch/file/BdeRsuprSgcA/anigmfrd9.part09.rar
http://www.uploadable.ch/file/rJTtaefTC47m/anigmfrd9.part10.rar
http://www.uploadable.ch/file/udtuQPfkuaPd/anigmfrd9.part11.rar

Desconectado pomposos

  • Gran Experto
  • *****
  • Mensajes: 4456
A Nightmare on Elm Street V [1988][FullHD 1080]
« Respuesta #5 en: Mayo 10, 2014, 08:21:20 am »

Código: You are not allowed to view links. Register or Login
http://www.imdb.com/title/tt0097981/
Titulo original A Nightmare on Elm Street V: The Dream Child
Ano 1989
Duracion 91 min.
Pais Estados Unidos
Director Stephen Hopkins
Guion Leslie Bohem (Personaje: Wes Craven)
Musica Jay Ferguson
Fotografia Peter Levy
Reparto Robert Englund, Lisa Wilcox, Erika Anderson, Kelly Jo Minter, Danny Hassel, Nick Mele, Whitby Hertford
Productora New Line Cinema
Genero Terror. Fantastico | Slasher. Secuela
Sinopsis Alice y Dan viven felices tras haber acabado con Freddy. Las pesadillas han terminado y Alice espera placidamente que nazca su bebe. Sin embargo, Freddy planea apoderarse del alma del hijo que espera Alice.

Código: You are not allowed to view links. Register or Login
Format : Matroska
Format version : Version 4 / Version 2
File size : 2.42 GiB
Duration : 1h 29mn
Overall bit rate : 3 871 Kbps
Movie name : A Nightmare on Elm Street 5: The Dream Child (1989)
Encoded date : UTC 2014-04-27 20:43:54
Writing application : mkvmerge v6.5.0 ('Isn't she lovely') built on Oct 20 2013 12:50:05
Writing library : libebml v1.3.0 + libmatroska v1.4.1
Video
ID : 1
Format : AVC
Format/Info : Advanced Video Codec
Format profile : High@L4.1
Format settings, CABAC : Yes
Format settings, ReFrames : 2 frames
Codec ID : V_MPEG4/ISO/AVC
Duration : 1h 29mn
Bit rate : 2 898 Kbps
Width : 1 920 pixels
Height : 1 080 pixels
Display aspect ratio : 16:9
Frame rate mode : Constant
Frame rate : 23.976 fps
Color space : YUV
Chroma subsampling : 4:2:0
Bit depth : 8 bits
Scan type : Progressive
Bits/(Pixel*Frame) : 0.058
Stream size : 1.81 GiB (75%)
Title : [url=http://WwW.CinemaniaHD.org]WwW.CinemaniaHD.org[/url]
Writing library : x264 core
Default : Yes
Forced : No
Color primaries : BT.709
Transfer characteristics : BT.709
Matrix coefficients : BT.709
Audio #1
ID : 2
Format : AC-3
Format/Info : Audio Coding 3
Mode extension : CM (complete main)
Format settings, Endianness : Big
Codec ID : A_AC3
Duration : 1h 29mn
Bit rate mode : Constant
Bit rate : 448 Kbps
Channel count : 1 channel
Channel positions : Front: C
Sampling rate : 48.0 KHz
Bit depth : 16 bits
Compression mode : Lossy
Stream size : 287 MiB (12%)
Title : Audio Latino
Language : Spanish
Default : Yes
Forced : No
Audio #2
ID : 3
Format : AC-3
Format/Info : Audio Coding 3
Mode extension : CM (complete main)
Format settings, Endianness : Big
Codec ID : A_AC3
Duration : 1h 29mn
Bit rate mode : Constant
Bit rate : 448 Kbps
Channel count : 6 channels
Channel positions : Front: L C R, Side: L R, LFE
Sampling rate : 48.0 KHz
Bit depth : 16 bits
Compression mode : Lossy
Stream size : 287 MiB (12%)
Title : Audio Ingles
Language : English
Default : No
Forced : No
Text #1
ID : 4
Format : UTF-8
Codec ID : S_TEXT/UTF8
Codec ID/Info : UTF-8 Plain Text
Default : Yes
Forced : No
Text #2
ID : 5
Format : VobSub
Muxing mode : zlib
Codec ID : S_VOBSUB
Codec ID/Info : The same subtitle format used on DVDs
Title : Subtitulos Latino
Language : Spanish
Default : No
Forced : No
Text #3
ID : 6
Format : VobSub
Muxing mode : zlib
Codec ID : S_VOBSUB
Codec ID/Info : The same subtitle format used on DVDs
Title : Subtitulos Ingles
Language : English
Default : No
Forced : No









Código: You are not allowed to view links. Register or Login
http://www.uploadable.ch/file/kK7qwy88HN4g/anigmfrd5.part01.rar
http://www.uploadable.ch/file/aQRkF3gDrqfR/anigmfrd5.part02.rar
http://www.uploadable.ch/file/h9RJE3vzwCyD/anigmfrd5.part03.rar
http://www.uploadable.ch/file/xnBv94NNGyv4/anigmfrd5.part04.rar
http://www.uploadable.ch/file/T5mzaYHYhZ2Q/anigmfrd5.part05.rar
http://www.uploadable.ch/file/yarrr7rSfJ5k/anigmfrd5.part06.rar
http://www.uploadable.ch/file/U64YjMPTGy3Y/anigmfrd5.part07.rar
http://www.uploadable.ch/file/fN6z9mwT6mFw/anigmfrd5.part08.rar
http://www.uploadable.ch/file/eKRFdE4aCTsG/anigmfrd5.part09.rar
http://www.uploadable.ch/file/KKxxQqUvx7Cd/anigmfrd5.part10.rar

Tags:
Tags:

 


SMF 2.0.11 | SMF © 2015, Simple Machines
Paginas Afiliadas
Twitter - FaceBook - Daraxblog
Designed by Smf Personal